VERSION	0.00.00	1.03.00
FES_MODE	0
BPM_DEF	125.000	125.000	125.000	125.000
MET_DEF	4	4
RESOLUTION	384
CLK_DEF	384
COMPATIBLE_CODE	MA2

BPM	0	0	125.000

STR	2	0	5
SCR	2	0	5	96	192	2
STR	3	0	3
SUR	3	0	3	96	192	4
TAP	4	0	5
TAP	4	96	4
TAP	4	96	5
TAP	4	192	5
TAP	4	288	4
TAP	4	288	6
TAP	5	0	2
TAP	5	96	2
TAP	5	96	3
TAP	5	192	2
TAP	5	288	1
TAP	5	288	3
HLD	6	0	5	192
TAP	6	192	4
TAP	6	288	3
TAP	6	288	6
TAP	7	0	7
TAP	7	96	0
TAP	7	96	6
TAP	7	192	1
TAP	7	288	0
TAP	7	288	1
HLD	8	0	2	192
TAP	8	192	3
TAP	8	288	1
TAP	8	288	4
TAP	9	0	0
TAP	9	96	1
TAP	9	96	7
TAP	9	192	2
TAP	9	192	6
TAP	9	288	3
TAP	9	288	5
TAP	10	0	4
TAP	10	96	2
TAP	10	96	3
TAP	10	192	4
TAP	10	288	2
TAP	10	288	3
TAP	11	0	1
TAP	11	96	0
TAP	11	192	2
TAP	11	192	7
TAP	12	0	3
TAP	12	96	4
TAP	12	96	5
TAP	12	192	3
TAP	12	288	4
TAP	12	288	5
TAP	13	0	6
TAP	13	96	7
TAP	13	192	0
TAP	13	192	5
HLD	14	0	1	96
TAP	14	96	0
TAP	14	192	2
TAP	14	192	7
TAP	14	288	1
TAP	14	288	6
HLD	15	0	5	96
TAP	15	96	4
TAP	15	192	3
TAP	15	192	6
HLD	16	0	5	96
TAP	16	96	4
TAP	16	192	3
TAP	16	192	6
TAP	16	288	2
TAP	16	288	5
TAP	17	0	3
TAP	17	0	4
TAP	17	96	2
TAP	17	96	5
TAP	17	192	1
TAP	17	192	6
STR	17	288	0
SUL	17	288	0	96	384	1
STR	17	288	7
SCL	17	288	7	96	384	2
BRK	19	192	0
BRK	19	192	7
TAP	20	0	3
TAP	20	0	4
TAP	20	96	5
TAP	20	192	3
TAP	20	192	4
TAP	20	288	2
TAP	21	0	4
TAP	21	0	5
TAP	21	96	3
TAP	21	96	6
TAP	21	192	0
TAP	21	192	7
TAP	22	0	3
TAP	22	0	4
TAP	22	96	2
TAP	22	192	3
TAP	22	192	4
STR	22	288	5
SLR	22	288	5	96	192	3
TAP	23	288	2
TAP	23	288	5
TAP	24	0	1
TAP	24	96	0
TAP	24	96	2
TAP	24	192	6
TAP	24	288	5
TAP	24	288	7
TAP	25	0	2
TAP	25	96	1
TAP	25	96	3
TAP	25	192	5
TAP	25	288	4
TAP	25	288	6
TAP	26	0	2
TAP	26	96	0
TAP	26	96	1
TAP	26	192	5
TAP	26	288	6
TAP	26	288	7
HLD	27	0	0	192
BRK	27	192	7
HLD	28	0	2	96
TAP	28	96	3
HLD	28	192	5	96
TAP	28	288	4
HLD	29	0	1	96
TAP	29	96	3
TAP	29	192	0
TAP	29	192	7
HLD	30	0	4	96
TAP	30	96	5
HLD	30	192	3	96
TAP	30	288	2
HLD	31	0	5	96
TAP	31	96	6
TAP	31	192	0
TAP	31	192	7
STR	32	0	4
SI_	32	0	4	96	144	1
STR	32	0	5
SI_	32	0	5	96	144	0
STR	33	0	2
SI_	33	0	2	96	144	7
STR	33	0	3
SI_	33	0	3	96	144	6
STR	34	0	3
SI_	34	0	3	96	144	0
STR	34	0	4
SI_	34	0	4	96	144	7
TAP	35	0	0
TAP	35	0	7
TAP	35	96	0
TAP	35	96	7
TAP	35	192	1
TAP	35	192	6
STR	36	0	0
SV_	36	0	0	96	144	3
STR	36	0	7
SV_	36	0	7	96	144	4
HLD	37	0	2	96
HLD	37	0	5	96
HLD	37	192	3	96
HLD	37	192	4	96
STR	38	0	3
SCL	38	0	3	96	144	0
STR	38	0	4
SCR	38	0	4	96	144	7
HLD	39	0	0	96
HLD	39	0	7	96
BRK	39	192	1
BRK	39	192	6
TAP	40	0	2
TAP	40	0	5
TAP	40	96	3
TAP	40	96	6
TAP	40	192	2
TAP	40	192	5
TAP	40	288	1
TAP	40	288	4
TAP	41	0	2
TAP	41	0	5
TAP	41	96	3
TAP	41	96	6
TAP	41	192	4
TAP	41	192	5
HLD	42	0	4	96
HLD	42	96	2	96
HLD	42	192	1	96
STR	42	288	0
SI_	42	288	0	96	192	3
SI_	42	288	0	96	192	5
TAP	43	288	4
TAP	44	0	2
TAP	44	0	5
TAP	44	96	1
TAP	44	96	4
TAP	44	192	2
TAP	44	192	5
TAP	44	288	3
TAP	44	288	6
TAP	45	0	2
TAP	45	0	5
TAP	45	96	1
TAP	45	96	4
TAP	45	192	2
TAP	45	192	3
HLD	46	0	3	96
HLD	46	0	4	96
TAP	46	192	2
TAP	46	192	5
BRK	46	288	0
BRK	46	288	7
TAP	47	0	1
TAP	47	0	6
TAP	47	96	0
TAP	47	96	5
TAP	47	192	1
TAP	47	192	6
TAP	47	288	2
TAP	47	288	7
TAP	48	0	1
TAP	48	0	6
TAP	48	96	0
TAP	48	96	5
TAP	48	192	6
TAP	48	192	7
HLD	49	0	7	96
HLD	49	96	1	96
HLD	49	192	2	96
STR	49	288	3
SI_	49	288	3	96	192	0
SI_	49	288	3	96	192	6
TAP	50	288	7
TAP	51	0	1
TAP	51	0	6
TAP	51	96	2
TAP	51	96	7
TAP	51	192	1
TAP	51	192	6
STR	51	288	0
SCR	51	288	0	96	288	5
TAP	51	288	5
TAP	53	0	6
TAP	53	0	7
TAP	53	96	5
TAP	53	192	3
TAP	53	192	4
TAP	53	288	2
TAP	54	0	0
TAP	54	0	1
TAP	54	96	2
TAP	54	192	3
TAP	54	192	4
TAP	54	288	5
BRK	55	0	0
BRK	55	0	6
BRK	55	192	1
BRK	55	192	7
TAP	56	0	3
TAP	56	0	4
TAP	56	96	2
TAP	56	96	5
TAP	56	192	1
TAP	56	192	6
STR	56	288	0
SCR	56	288	0	96	960	7
TAP	56	288	7

T_REC_TAP	195
T_REC_BRK	11
T_REC_XTP	0
T_REC_HLD	26
T_REC_XHO	0
T_REC_STR	19
T_REC_BST	0
T_REC_XST	0
T_REC_TTP	0
T_REC_THO	0
T_REC_SLD	21
T_REC_ALL	272
T_NUM_TAP	214
T_NUM_BRK	11
T_NUM_HLD	26
T_NUM_SLD	21
T_NUM_ALL	272
T_JUDGE_TAP	225
T_JUDGE_HLD	58
T_JUDGE_SLD	21
T_JUDGE_ALL	304
TTM_EACHPAIRS	93
TTM_SCR_TAP	107000
TTM_SCR_BRK	28600
TTM_SCR_HLD	26000
TTM_SCR_SLD	31500
TTM_SCR_ALL	193100
TTM_SCR_S	186250
TTM_SCR_SS	192000
TTM_RAT_ACV	10057

