VERSION	0.00.00	1.03.00
FES_MODE	0
BPM_DEF	125.000	125.000	125.000	125.000
MET_DEF	4	4
RESOLUTION	384
CLK_DEF	384
COMPATIBLE_CODE	MA2

BPM	0	0	125.000

TAP	4	0	0
TAP	4	192	0
TAP	4	192	1
TAP	5	0	7
TAP	5	192	6
TAP	5	192	7
TAP	6	0	0
TAP	6	96	0
TAP	6	192	0
TAP	7	0	1
TAP	7	96	1
TAP	7	192	1
TAP	8	0	2
TAP	8	96	2
TAP	8	192	2
TAP	9	0	3
TAP	9	96	3
TAP	9	192	3
TAP	9	192	4
TAP	10	0	4
TAP	10	96	4
TAP	10	192	4
TAP	11	0	5
TAP	11	96	5
TAP	11	192	5
TAP	12	0	6
TAP	12	96	6
TAP	12	192	6
TAP	13	0	7
TAP	13	96	7
TAP	13	192	0
TAP	13	192	7
STR	14	0	0
SI_	14	0	0	96	192	5
TAP	15	192	6
STR	16	0	7
SI_	16	0	7	96	192	2
TAP	17	192	1
TAP	18	0	0
TAP	18	96	0
TAP	18	192	0
TAP	19	0	7
TAP	19	96	7
TAP	19	192	7
TAP	20	0	0
TAP	20	96	0
TAP	20	192	0
HLD	21	0	1	96
TAP	21	192	1
TAP	22	0	2
TAP	22	96	2
TAP	22	192	2
HLD	23	0	3	96
TAP	23	192	3
TAP	24	0	4
TAP	24	96	4
TAP	24	192	4
HLD	25	0	5	96
TAP	25	192	5
TAP	26	0	6
TAP	26	96	6
TAP	26	192	6
HLD	27	0	0	96
HLD	27	0	7	96
TAP	27	192	0
TAP	27	192	7
TAP	28	0	7
TAP	28	96	7
TAP	28	192	6
TAP	28	288	6
TAP	29	0	5
TAP	29	96	5
TAP	29	192	4
TAP	30	0	3
TAP	30	96	3
TAP	30	192	2
TAP	30	288	2
TAP	31	0	1
TAP	31	96	1
TAP	31	192	0
STR	32	0	0
SI_	32	0	0	96	288	4
TAP	33	192	4
STR	34	0	4
SI_	34	0	4	96	288	0
TAP	35	192	0
HLD	36	0	7	192
TAP	37	0	6
TAP	37	96	6
TAP	37	192	6
TAP	37	192	7
HLD	38	0	0	192
TAP	39	0	1
TAP	39	96	1
TAP	39	192	0
TAP	39	192	1
BRK	40	0	7
TAP	40	96	7
TAP	40	192	6
TAP	40	288	6
TAP	41	0	5
TAP	41	96	5
TAP	41	192	4
TAP	41	192	5
TAP	42	0	3
TAP	42	96	3
TAP	42	192	2
TAP	42	288	2
TAP	43	0	1
TAP	43	96	1
TAP	43	192	0
TAP	43	192	1
TAP	44	0	2
TAP	44	192	1
TAP	45	0	0
TAP	45	192	7
TAP	46	0	6
TAP	46	192	5
TAP	47	0	4
TAP	47	96	4
TAP	47	192	5
TAP	47	288	5
TAP	48	0	6
TAP	48	96	6
TAP	48	192	6
TAP	48	192	7
TAP	49	0	0
TAP	49	96	0
TAP	49	192	1
TAP	49	288	1
TAP	50	0	2
TAP	50	96	2
TAP	50	192	2
TAP	50	192	3
TAP	51	0	3
TAP	51	96	3
TAP	51	192	2
TAP	51	288	2
TAP	52	0	1
TAP	52	96	1
TAP	52	192	0
TAP	52	192	1
TAP	53	0	7
TAP	53	96	7
TAP	53	192	6
TAP	53	288	6
TAP	54	0	5
TAP	54	96	5
TAP	54	192	4
TAP	54	192	5
TAP	55	0	3
TAP	55	0	4
TAP	55	192	2
TAP	55	192	5
TAP	56	0	1
TAP	56	0	6
TAP	56	192	0
TAP	56	192	7
STR	57	0	0
SI_	57	0	0	96	192	3
STR	57	0	7
SI_	57	0	7	96	192	4

T_REC_TAP	142
T_REC_BRK	1
T_REC_XTP	0
T_REC_HLD	7
T_REC_XHO	0
T_REC_STR	6
T_REC_BST	0
T_REC_XST	0
T_REC_TTP	0
T_REC_THO	0
T_REC_SLD	6
T_REC_ALL	162
T_NUM_TAP	148
T_NUM_BRK	1
T_NUM_HLD	7
T_NUM_SLD	6
T_NUM_ALL	162
T_JUDGE_TAP	149
T_JUDGE_HLD	18
T_JUDGE_SLD	6
T_JUDGE_ALL	173
TTM_EACHPAIRS	19
TTM_SCR_TAP	74000
TTM_SCR_BRK	2600
TTM_SCR_HLD	7000
TTM_SCR_SLD	9000
TTM_SCR_ALL	92600
TTM_SCR_S	89750
TTM_SCR_SS	92500
TTM_RAT_ACV	10010

