VERSION	0.00.00	1.03.00
FES_MODE	0
BPM_DEF	170.000	170.000	170.000	170.000
MET_DEF	4	4
RESOLUTION	384
CLK_DEF	384
COMPATIBLE_CODE	MA2

BPM	0	0	170.000
MET	0	0	4	4

TAP	1	288	5
TAP	1	312	3
TAP	1	336	4
TAP	1	360	2
TAP	2	0	5
TAP	2	144	2
TAP	2	168	3
HLD	2	192	2	72
HLD	2	264	3	72
TAP	2	336	4
HLD	3	0	5	72
HLD	3	72	4	72
TAP	3	144	3
TAP	3	192	2
TAP	3	288	2
TAP	3	312	4
TAP	3	336	3
TAP	3	360	5
TAP	4	0	2
TAP	4	144	5
TAP	4	168	4
HLD	4	192	5	72
HLD	4	264	4	72
TAP	4	336	3
HLD	5	0	2	72
HLD	5	72	3	72
TAP	5	144	4
TAP	5	192	5
TAP	5	288	5
TAP	5	312	3
TAP	5	336	4
TAP	5	360	2
TAP	6	0	5
TAP	6	144	2
TAP	6	168	3
HLD	6	192	2	72
HLD	6	264	3	72
TAP	6	336	4
HLD	7	0	6	72
HLD	7	72	5	72
TAP	7	144	4
HLD	7	192	1	72
HLD	7	264	2	72
TAP	7	336	3
HLD	8	0	2	96
HLD	8	0	5	96
TAP	8	144	4
TAP	8	168	3
HLD	8	192	4	72
HLD	8	264	3	72
TAP	8	336	2
TAP	9	0	2
STR	9	48	3
SI_	9	48	3	96	144	7
TAP	9	96	4
TAP	9	144	5
TAP	10	0	0
TAP	10	0	7
STR	10	48	1
SI_	10	48	1	96	48	4
TAP	10	48	6
TAP	10	144	1
STR	10	144	5
SI_	10	144	5	96	48	0
STR	10	240	2
SI_	10	240	2	96	48	6
TAP	10	240	5
TAP	10	336	2
STR	10	336	7
SI_	10	336	7	96	48	3
STR	11	48	0
SI_	11	48	0	96	48	4
TAP	11	48	7
TAP	11	144	0
TAP	11	144	4
TAP	11	192	7
TAP	11	208	6
TAP	11	224	5
TAP	11	240	0
TAP	11	256	1
TAP	11	272	2
TAP	11	288	6
TAP	11	304	5
TAP	11	320	4
TAP	11	336	1
TAP	11	352	2
TAP	11	368	3
TAP	12	0	7
TAP	12	48	0
STR	12	48	6
SI_	12	48	6	96	48	3
STR	12	144	2
SI_	12	144	2	96	48	7
TAP	12	144	6
TAP	12	240	2
STR	12	240	5
SI_	12	240	5	96	48	1
TAP	12	336	0
TAP	12	336	5
TAP	13	0	2
TAP	13	12	3
TAP	13	24	4
TAP	13	36	5
TAP	13	48	6
TAP	13	60	7
TAP	13	72	0
TAP	13	84	1
TAP	13	96	2
TAP	13	108	3
TAP	13	120	4
TAP	13	132	5
TAP	13	144	6
TAP	13	156	7
TAP	13	168	0
TAP	13	180	1
BRK	13	192	2
BRK	13	192	6
TAP	14	0	1
TAP	14	0	6
TAP	14	48	5
TAP	14	72	4
TAP	14	96	6
TAP	14	144	2
TAP	14	168	3
TAP	14	192	1
TAP	14	240	6
TAP	14	264	7
TAP	14	288	5
TAP	14	336	1
TAP	14	360	0
TAP	15	0	2
TAP	15	48	5
TAP	15	72	4
STR	15	96	7
SCL	15	96	7	96	48	4
SUL	15	96	7	96	48	3
TAP	15	120	0
TAP	15	144	7
TAP	15	288	2
TAP	15	312	3
TAP	15	336	0
TAP	16	0	1
TAP	16	0	6
TAP	16	48	2
TAP	16	72	3
TAP	16	96	1
TAP	16	144	5
TAP	16	168	4
TAP	16	192	6
TAP	16	240	1
TAP	16	264	0
TAP	16	288	2
TAP	16	336	6
TAP	16	360	7
TAP	17	0	5
TAP	17	48	2
TAP	17	72	3
STR	17	96	0
SCR	17	96	0	96	48	3
SUR	17	96	0	96	48	4
TAP	17	120	7
TAP	17	144	0
TAP	17	288	5
TAP	17	312	4
TAP	17	336	7
TAP	18	0	1
TAP	18	0	6
TAP	18	48	5
TAP	18	72	4
TAP	18	96	6
TAP	18	144	2
TAP	18	168	3
TAP	18	192	1
TAP	18	240	6
TAP	18	264	7
TAP	18	288	5
TAP	18	336	1
TAP	18	360	0
STR	19	0	2
SI_	19	0	2	96	24	0
STR	19	72	0
SI_	19	72	0	96	48	4
TAP	19	144	4
STR	19	192	5
SI_	19	192	5	96	24	7
STR	19	264	7
SI_	19	264	7	96	48	3
TAP	19	336	3
BRK	20	0	0
TAP	20	144	1
TAP	20	144	5
TAP	20	168	2
TAP	20	168	6
TAP	20	192	3
TAP	20	192	7
TAP	20	264	0
TAP	20	264	2
TAP	20	336	5
TAP	20	336	7
TAP	21	0	2
STR	21	48	3
SI_	21	48	3	96	48	7
TAP	21	96	4
TAP	21	144	3
TAP	21	144	5
TAP	21	288	2
TAP	21	312	3
TAP	21	336	1
TAP	22	0	0
HLD	22	0	6	72
TAP	22	72	4
TAP	22	96	4
TAP	22	96	5
TAP	22	144	3
TAP	22	144	6
HLD	22	192	1	72
TAP	22	192	7
TAP	22	264	3
TAP	22	288	2
TAP	22	288	3
TAP	22	336	1
TAP	22	336	4
TAP	23	0	0
HLD	23	0	6	72
TAP	23	72	4
TAP	23	96	4
TAP	23	96	5
TAP	23	144	3
TAP	23	144	6
STR	23	192	2
SCL	23	192	2	96	48	7
STR	23	192	7
SCL	23	192	7	96	48	4
HLD	24	0	1	72
TAP	24	0	7
TAP	24	72	3
TAP	24	96	2
TAP	24	96	3
TAP	24	144	1
TAP	24	144	4
TAP	24	192	0
HLD	24	192	6	72
TAP	24	264	4
TAP	24	288	4
TAP	24	288	5
TAP	24	336	3
TAP	24	336	6
HLD	25	0	1	72
TAP	25	0	7
TAP	25	72	3
TAP	25	96	2
TAP	25	96	3
TAP	25	144	1
TAP	25	144	4
STR	25	192	0
SCR	25	192	0	96	48	3
STR	25	192	5
SCR	25	192	5	96	48	0
HLD	26	0	2	96
STR	26	0	4
SI_	26	0	4	96	96	0
HLD	26	144	6	144
TAP	26	288	7
TAP	26	312	0
TAP	26	336	1
TAP	26	360	2
STR	27	0	3
SI_	27	0	3	96	96	7
HLD	27	0	5	96
HLD	27	144	1	144
TAP	27	288	0
TAP	27	312	7
TAP	27	336	6
TAP	27	360	5
TAP	28	0	3
TAP	28	0	4
TAP	28	48	2
TAP	28	72	3
TAP	28	96	1
TAP	28	144	5
TAP	28	168	4
TAP	28	192	6
TAP	28	240	3
TAP	28	264	4
TAP	28	288	2
TAP	28	312	5
TAP	28	336	1
TAP	28	360	6
TAP	29	0	0
TAP	29	24	0
TAP	29	48	7
TAP	29	72	7
TAP	29	96	6
TAP	29	120	6
TAP	29	144	5
TAP	29	168	5
TAP	29	192	4
TAP	29	216	4
TAP	29	240	3
TAP	29	264	3
TAP	29	288	2
TAP	29	312	2
TAP	29	336	1
TAP	29	360	1
BST	30	0	0
SI_	30	0	0	96	48	4
TAP	30	96	0
STR	30	96	7
SI_	30	96	7	96	48	3
STR	30	192	1
SI_	30	192	1	96	48	4
TAP	30	192	7
TAP	30	288	0
TAP	30	288	1
TAP	31	0	0
STR	31	0	7
SI_	31	0	7	96	48	3
STR	31	96	0
SI_	31	96	0	96	48	4
TAP	31	96	7
TAP	31	192	0
STR	31	192	6
SI_	31	192	6	96	48	3
TAP	31	288	6
TAP	31	288	7
STR	32	0	1
SI_	32	0	1	96	48	4
TAP	32	0	7
TAP	32	96	1
STR	32	96	5
SI_	32	96	5	96	48	0
STR	32	192	2
SI_	32	192	2	96	48	7
TAP	32	192	5
TAP	32	288	2
TAP	32	288	6
TAP	33	0	0
HLD	33	0	1	48
TAP	33	48	3
HLD	33	96	6	48
TAP	33	96	7
TAP	33	144	4
TAP	33	192	1
TAP	33	216	4
TAP	33	240	2
TAP	33	264	5
TAP	33	288	3
TAP	33	312	6
TAP	33	336	4
STR	34	0	6
SI_	34	0	6	96	48	2
TAP	34	0	7
TAP	34	48	5
TAP	34	96	6
STR	34	96	7
SI_	34	96	7	96	48	3
TAP	34	144	0
STR	34	192	6
SI_	34	192	6	96	48	2
TAP	34	192	7
TAP	34	240	5
TAP	34	288	6
TAP	34	288	7
TAP	35	0	0
STR	35	0	1
SI_	35	0	1	96	48	5
TAP	35	48	2
STR	35	96	0
SI_	35	96	0	96	48	4
TAP	35	96	1
TAP	35	144	7
TAP	35	192	0
STR	35	192	1
SI_	35	192	1	96	48	5
TAP	35	240	2
TAP	35	288	0
TAP	35	288	1
HLD	36	0	4	96
TAP	36	0	5
TAP	36	96	7
TAP	36	120	6
TAP	36	144	5
TAP	36	168	4
TAP	36	192	2
HLD	36	192	3	96
TAP	36	288	0
TAP	36	312	1
TAP	36	336	2
TAP	36	360	3
TAP	37	0	4
TAP	37	0	5
TAP	37	32	5
TAP	37	64	5
TAP	37	96	2
TAP	37	96	3
TAP	37	128	2
TAP	37	160	2
TAP	37	192	7
TAP	37	216	0
TAP	37	240	6
TAP	37	264	1
TAP	37	288	5
TAP	37	312	2
TAP	37	336	4
TAP	37	360	3
BRK	38	0	2
HLD	38	0	5	192
HLD	38	192	7	192
HLD	39	0	1	192
HLD	39	192	3	864
BST	40	0	2
SCR	40	0	2	96	192	6
STR	41	0	6
SCL	41	0	6	96	192	2
BRK	42	0	0
HLD	42	0	7	192
HLD	42	192	5	192
HLD	43	0	3	192
HLD	43	192	1	864
BST	44	0	2
SCL	44	0	2	96	192	6
STR	45	0	6
SCR	45	0	6	96	192	2
BST	46	0	0
SCR	46	0	0	96	48	3
TAP	46	0	7
TAP	46	96	5
STR	46	144	6
SUL	46	144	6	96	48	2
TAP	46	240	2
STR	46	288	1
SUL	46	288	1	96	48	5
TAP	47	0	5
STR	47	48	4
SCR	47	48	4	96	48	7
TAP	47	144	0
TAP	47	192	1
TAP	47	288	3
TAP	47	288	5
STR	48	0	7
SCL	48	0	7	96	48	4
TAP	48	96	2
STR	48	144	1
SUR	48	144	1	96	48	5
TAP	48	240	5
STR	48	288	6
SUR	48	288	6	96	48	2
TAP	49	0	2
STR	49	48	3
SCL	49	48	3	96	48	0
TAP	49	144	7
TAP	49	192	6
TAP	49	288	2
TAP	49	288	4
STR	50	0	1
SCR	50	0	1	96	48	4
TAP	50	48	0
TAP	50	96	7
STR	50	144	6
SCR	50	144	6	96	48	1
TAP	50	192	5
TAP	50	240	4
STR	50	288	3
SCR	50	288	3	96	48	6
TAP	50	336	2
TAP	51	0	1
STR	51	48	0
SCR	51	48	0	96	48	3
TAP	51	96	7
TAP	51	144	6
TAP	51	192	5
TAP	51	288	1
TAP	51	288	3
STR	52	0	6
SCL	52	0	6	96	48	3
TAP	52	48	7
TAP	52	96	0
STR	52	144	1
SCL	52	144	1	96	48	6
TAP	52	192	2
TAP	52	240	3
STR	52	288	4
SCL	52	288	4	96	48	1
TAP	52	336	5
TAP	53	0	6
STR	53	48	7
SCL	53	48	7	96	48	4
TAP	53	96	0
TAP	53	144	1
BRK	53	192	2
BRK	53	240	0
BRK	53	240	5
STR	54	0	2
SLR	54	0	2	96	48	0
TAP	54	0	4
TAP	54	48	2
HLD	54	48	4	96
TAP	54	192	2
TAP	54	192	6
STR	54	240	1
SI_	54	240	1	96	48	5
TAP	54	264	0
TAP	54	288	1
TAP	54	336	5
STR	55	0	6
SI_	55	0	6	96	48	2
TAP	55	24	7
TAP	55	48	6
TAP	55	96	2
TAP	55	144	0
TAP	55	168	7
STR	55	192	0
SI_	55	192	0	96	48	4
TAP	55	240	4
TAP	55	288	0
TAP	55	288	7
TAP	55	336	6
TAP	56	0	3
STR	56	0	5
SLL	56	0	5	96	48	7
HLD	56	48	3	96
TAP	56	48	5
TAP	56	192	1
TAP	56	192	5
STR	56	240	6
SI_	56	240	6	96	48	2
TAP	56	264	7
TAP	56	288	6
TAP	56	336	2
STR	57	0	1
SI_	57	0	1	96	48	5
TAP	57	24	0
TAP	57	48	1
TAP	57	96	5
TAP	57	144	7
TAP	57	168	0
STR	57	192	7
SI_	57	192	7	96	48	3
TAP	57	240	3
TAP	57	288	0
TAP	57	288	7
TAP	58	0	0
STR	58	0	2
SLL	58	0	2	96	48	4
HLD	58	48	0	96
TAP	58	48	2
TAP	58	192	1
TAP	58	192	5
STR	58	240	2
SI_	58	240	2	96	48	6
TAP	58	264	3
TAP	58	288	2
TAP	58	336	7
STR	59	0	5
SI_	59	0	5	96	48	1
TAP	59	24	4
TAP	59	48	5
TAP	59	96	1
TAP	59	144	3
TAP	59	168	4
STR	59	192	3
SI_	59	192	3	96	48	7
TAP	59	240	7
TAP	59	288	3
TAP	59	288	4
TAP	59	336	6
STR	60	0	5
SLR	60	0	5	96	48	3
TAP	60	0	7
TAP	60	48	5
HLD	60	48	7	96
TAP	60	192	2
TAP	60	192	5
STR	60	240	4
SI_	60	240	4	96	48	0
TAP	60	264	3
TAP	60	288	4
TAP	60	336	0
TAP	61	0	1
TAP	61	16	2
TAP	61	32	3
TAP	61	48	6
TAP	61	64	5
TAP	61	80	4
STR	61	96	7
SF_	61	96	7	96	48	3
TAP	61	144	1
TAP	61	144	5
BRK	61	192	7
STR	62	0	2
SUL	62	0	2	96	192	5
HLD	62	0	6	288
HLD	63	0	1	288
STR	63	0	5
SUR	63	0	5	96	192	2
STR	64	0	3
SV_	64	0	3	96	192	4
HLD	64	0	5	288
HLD	65	0	2	288
STR	65	0	4
SV_	65	0	4	96	192	3
TAP	66	0	4
STR	66	48	3
SCR	66	48	3	96	96	6
TAP	66	96	2
TAP	66	144	1
TAP	67	0	3
STR	67	48	4
SCL	67	48	4	96	96	1
TAP	67	96	5
TAP	67	144	6
TAP	68	0	4
STR	68	48	3
SCR	68	48	3	96	96	7
TAP	68	96	2
TAP	68	144	1
TAP	69	0	3
STR	69	48	4
SCL	69	48	4	96	96	0
TAP	69	96	5
TAP	69	144	6
TAP	70	0	6
TAP	70	48	4
TAP	70	96	3
TAP	70	144	1
TAP	70	144	6
STR	70	288	2
SLR	70	288	2	96	192	7
STR	70	288	5
SLL	70	288	5	96	192	0
TAP	71	288	0
TAP	71	312	7
TAP	71	336	1
TAP	71	360	6
STR	72	0	0
SCR	72	0	0	96	48	3
TAP	72	0	7
TAP	72	48	4
TAP	72	72	4
STR	72	96	0
SI_	72	96	0	96	48	5
TAP	72	144	6
TAP	72	168	6
STR	72	192	0
SI_	72	192	0	96	48	3
TAP	72	240	4
TAP	72	264	4
STR	72	288	0
SCL	72	288	0	96	48	5
TAP	72	336	7
TAP	72	360	7
STR	73	0	0
SI_	73	0	0	96	48	4
TAP	73	48	4
TAP	73	72	4
TAP	73	96	0
TAP	73	144	7
TAP	73	192	1
TAP	73	192	5
TAP	73	288	7
TAP	73	312	0
TAP	73	336	6
TAP	73	360	1
TAP	74	0	0
STR	74	0	7
SCL	74	0	7	96	48	4
TAP	74	48	3
TAP	74	72	3
STR	74	96	7
SI_	74	96	7	96	48	2
TAP	74	144	1
TAP	74	168	1
STR	74	192	7
SI_	74	192	7	96	48	4
TAP	74	240	3
TAP	74	264	3
STR	74	288	7
SCR	74	288	7	96	48	2
TAP	74	336	0
TAP	74	360	0
STR	75	0	7
SI_	75	0	7	96	48	3
TAP	75	48	3
TAP	75	72	3
TAP	75	96	7
TAP	75	144	0
TAP	75	192	2
TAP	75	192	6
TAP	75	288	0
TAP	75	312	7
TAP	75	336	1
TAP	75	360	6
STR	76	0	0
SCR	76	0	0	96	48	3
TAP	76	0	7
TAP	76	48	4
TAP	76	72	4
STR	76	96	0
SCL	76	96	0	96	48	5
TAP	76	144	6
TAP	76	168	6
STR	76	192	0
SI_	76	192	0	96	48	3
TAP	76	240	4
TAP	76	264	4
STR	76	288	0
SI_	76	288	0	96	48	5
TAP	76	336	7
TAP	76	360	7
STR	77	0	0
SCR	77	0	0	96	48	3
TAP	77	48	4
TAP	77	72	4
STR	77	96	0
SCL	77	96	0	96	48	5
TAP	77	144	6
TAP	77	168	6
STR	77	192	0
SI_	77	192	0	96	48	4
TAP	77	240	4
TAP	77	264	4
TAP	77	288	0
TAP	77	336	7
BRK	78	0	1
BRK	78	0	5
TAP	78	144	3
TAP	78	144	7
TAP	78	168	2
TAP	78	168	6
TAP	78	192	1
TAP	78	192	5
TAP	78	264	4
TAP	78	264	6
TAP	78	336	1
TAP	78	336	3
TAP	79	0	4
STR	79	48	3
SI_	79	48	3	96	48	7
TAP	79	96	2
HLD	79	144	1	216
TAP	79	144	3
TAP	79	288	2
TAP	79	312	3
TAP	79	336	4
TAP	79	360	5
TAP	80	0	1
TAP	80	24	0
TAP	80	48	3
TAP	80	72	4
TAP	80	96	7
TAP	80	120	6
TAP	80	144	0
TAP	80	168	5
TAP	80	192	7
TAP	80	216	6
TAP	80	240	3
TAP	80	264	4
TAP	80	288	1
TAP	80	312	0
TAP	80	336	2
TAP	80	360	7
TAP	81	0	1
TAP	81	24	0
TAP	81	48	4
TAP	81	72	5
TAP	81	96	7
TAP	81	120	6
TAP	81	144	2
TAP	81	168	3
HLD	81	192	1	96
TAP	81	192	4
TAP	81	288	0
TAP	81	312	1
TAP	81	336	7
TAP	81	360	0
TAP	82	0	6
TAP	82	24	7
TAP	82	48	4
TAP	82	72	3
TAP	82	96	0
TAP	82	120	1
TAP	82	144	7
TAP	82	168	2
TAP	82	192	0
TAP	82	216	1
TAP	82	240	4
TAP	82	264	3
TAP	82	288	6
TAP	82	312	7
TAP	82	336	5
TAP	82	360	0
TAP	83	0	6
TAP	83	24	7
TAP	83	48	3
TAP	83	72	2
TAP	83	96	0
TAP	83	120	1
TAP	83	144	5
TAP	83	168	4
TAP	83	192	3
HLD	83	192	6	96
TAP	83	288	7
TAP	83	312	0
TAP	83	336	1
TAP	83	360	2
STR	84	0	3
SI_	84	0	3	96	96	7
HLD	84	0	5	96
HLD	84	144	1	144
TAP	84	288	0
TAP	84	312	7
TAP	84	336	6
TAP	84	360	5
HLD	85	0	2	96
STR	85	0	4
SI_	85	0	4	96	96	0
HLD	85	144	6	144
TAP	85	288	7
TAP	85	312	0
TAP	85	336	1
TAP	85	360	2
TAP	86	0	3
TAP	86	0	4
TAP	86	48	6
TAP	86	72	7
TAP	86	96	5
TAP	86	144	1
TAP	86	168	0
TAP	86	192	2
TAP	86	240	7
TAP	86	264	0
TAP	86	288	6
TAP	86	312	1
TAP	86	336	5
TAP	86	360	2
TAP	87	0	4
TAP	87	12	5
TAP	87	24	6
TAP	87	36	7
TAP	87	48	0
TAP	87	60	1
TAP	87	72	2
TAP	87	84	3
TAP	87	96	4
TAP	87	108	5
TAP	87	120	6
TAP	87	132	7
TAP	87	144	0
TAP	87	156	1
TAP	87	168	2
TAP	87	180	3
TAP	87	192	4
TAP	87	204	5
TAP	87	216	6
TAP	87	228	7
TAP	87	240	0
TAP	87	252	1
TAP	87	264	2
TAP	87	276	3
BRK	87	288	0
BRK	87	288	4
TAP	88	0	1
TAP	88	0	3
TAP	88	48	0
TAP	88	72	7
HLD	88	96	0	48
TAP	88	144	6
TAP	88	168	6
TAP	88	192	4
TAP	88	216	5
TAP	88	240	3
TAP	88	264	4
TAP	88	288	2
TAP	88	312	3
TAP	88	336	1
TAP	89	0	4
TAP	89	0	6
TAP	89	48	7
TAP	89	72	0
HLD	89	96	7	48
TAP	89	144	1
TAP	89	168	1
TAP	89	192	3
TAP	89	216	2
TAP	89	240	4
TAP	89	264	3
TAP	89	288	5
TAP	89	312	4
TAP	89	336	6
TAP	90	0	0
TAP	90	0	2
TAP	90	48	3
TAP	90	72	4
HLD	90	96	3	48
TAP	90	144	5
TAP	90	168	5
TAP	90	192	7
TAP	90	216	6
TAP	90	240	0
TAP	90	264	7
TAP	90	288	1
TAP	90	312	0
TAP	90	336	2
TAP	91	0	5
TAP	91	0	7
TAP	91	48	4
TAP	91	72	3
HLD	91	96	4	48
TAP	91	144	2
TAP	91	168	2
TAP	91	192	0
TAP	91	216	1
TAP	91	240	7
TAP	91	264	0
TAP	91	288	6
TAP	91	312	7
TAP	91	336	5
TAP	92	0	0
TAP	92	24	1
TAP	92	48	2
TAP	92	72	0
TAP	92	96	7
TAP	92	120	6
TAP	92	144	0
TAP	92	168	1
TAP	92	192	2
TAP	92	216	0
TAP	92	240	7
TAP	92	264	6
TAP	92	288	0
TAP	92	312	1
TAP	92	336	2
TAP	92	360	3
TAP	93	0	7
TAP	93	24	7
TAP	93	48	5
TAP	93	72	5
TAP	93	96	3
TAP	93	120	3
TAP	93	144	1
TAP	93	168	1
STR	93	192	7
SUL	93	192	7	96	48	2
SUR	93	192	7	96	48	4
BRK	93	288	7
TAP	94	0	7
TAP	94	24	6
TAP	94	48	5
TAP	94	72	7
TAP	94	96	0
TAP	94	120	1
TAP	94	144	7
TAP	94	168	6
TAP	94	192	5
TAP	94	216	7
TAP	94	240	0
TAP	94	264	1
TAP	94	288	7
TAP	94	312	6
TAP	94	336	5
TAP	94	360	4
TAP	95	0	1
TAP	95	0	3
TAP	95	24	2
TAP	95	48	3
TAP	95	72	4
TAP	95	72	6
TAP	95	96	5
TAP	95	120	4
TAP	95	144	0
TAP	95	144	3
TAP	95	168	1
TAP	95	192	2
TAP	95	216	3
TAP	95	216	7
TAP	95	240	6
TAP	95	264	5
TAP	95	288	3
TAP	95	288	4
TAP	95	312	2
TAP	95	336	1
TAP	95	360	0
TAP	96	0	6
STR	96	0	7
SF_	96	0	7	96	48	3
TAP	96	32	6
TAP	96	32	7
TAP	96	64	6
TAP	96	64	7
BRK	96	96	7
STR	96	192	0
SF_	96	192	0	96	48	4
TAP	96	192	1
TAP	96	224	0
TAP	96	224	1
TAP	96	256	0
TAP	96	256	1
BRK	96	288	0
TAP	97	0	2
TAP	97	0	6
TAP	97	32	2
TAP	97	32	6
TAP	97	64	2
TAP	97	64	6
TAP	97	96	0
TAP	97	96	4
TAP	97	128	0
TAP	97	128	4
TAP	97	160	0
TAP	97	160	4
TAP	97	192	1
TAP	97	208	2
TAP	97	224	3
TAP	97	240	7
TAP	97	256	6
TAP	97	272	5
TAP	97	288	0
TAP	97	304	1
TAP	97	320	2
TAP	97	336	6
TAP	97	352	5
TAP	97	368	4
TAP	98	96	0
TAP	98	96	7
STR	98	192	1
SI_	98	192	1	96	48	4
STR	98	192	5
SI_	98	192	5	96	48	0
TAP	98	224	1
TAP	98	224	5
TAP	98	256	1
TAP	98	256	5
BRK	98	288	1
BRK	98	288	5
STR	99	0	2
SI_	99	0	2	96	48	7
STR	99	0	6
SI_	99	0	6	96	48	3
TAP	99	32	2
TAP	99	32	6
TAP	99	64	2
TAP	99	64	6
BRK	99	96	2
BRK	99	96	6
TAP	99	192	0
TAP	99	204	1
TAP	99	216	2
TAP	99	228	3
TAP	99	240	4
TAP	99	252	5
TAP	99	264	6
TAP	99	276	7
TAP	99	288	0
TAP	99	300	1
TAP	99	312	2
TAP	99	324	3
TAP	99	336	4
TAP	99	348	5
TAP	99	360	6
TAP	99	372	7
HLD	100	0	0	288
TAP	100	0	4
STR	100	288	7
SF_	100	288	7	96	48	3
TAP	100	300	6
TAP	100	312	5
TAP	100	324	4
TAP	100	336	3
TAP	100	348	2
TAP	100	360	1
TAP	100	372	0
BRK	101	0	7

T_REC_TAP	768
T_REC_BRK	21
T_REC_XTP	0
T_REC_HLD	60
T_REC_XHO	0
T_REC_STR	106
T_REC_BST	4
T_REC_XST	0
T_REC_TTP	0
T_REC_THO	0
T_REC_SLD	113
T_REC_ALL	1072
T_NUM_TAP	874
T_NUM_BRK	25
T_NUM_HLD	60
T_NUM_SLD	113
T_NUM_ALL	1072
T_JUDGE_TAP	899
T_JUDGE_HLD	185
T_JUDGE_SLD	113
T_JUDGE_ALL	1197
TTM_EACHPAIRS	148
TTM_SCR_TAP	437000
TTM_SCR_BRK	65000
TTM_SCR_HLD	60000
TTM_SCR_SLD	169500
TTM_SCR_ALL	731500
TTM_SCR_S	707150
TTM_SCR_SS	729000
TTM_RAT_ACV	10034

