VERSION	0.00.00	1.03.00
FES_MODE	0
BPM_DEF	170.000	170.000	170.000	170.000
MET_DEF	4	4
RESOLUTION	384
CLK_DEF	384
COMPATIBLE_CODE	MA2

BPM	0	0	170.000

HLD	2	0	2	384
HLD	3	0	3	384
HLD	4	0	4	384
HLD	5	0	5	288
STR	5	288	4
SCL	5	288	4	96	288	5
STR	6	288	3
SCR	6	288	3	96	288	2
TAP	7	288	4
STR	8	0	4
SI_	8	0	4	96	48	0
STR	8	192	3
SI_	8	192	3	96	48	7
STR	9	0	1
SXR	9	0	1	96	192	4
STR	9	0	6
SXL	9	0	6	96	192	3
TAP	10	0	0
TAP	10	0	7
TAP	10	48	1
STR	10	48	6
SI_	10	48	6	96	48	2
STR	10	144	7
SI_	10	144	7	96	48	3
STR	10	240	0
SI_	10	240	0	96	48	4
STR	10	336	1
SI_	10	336	1	96	48	5
STR	11	48	2
SI_	11	48	2	96	48	6
TAP	11	144	0
STR	11	192	0
SF_	11	192	0	96	48	4
TAP	12	0	2
TAP	12	0	6
TAP	12	48	2
TAP	12	48	6
TAP	12	96	3
TAP	12	96	7
TAP	12	144	3
TAP	12	144	7
TAP	12	192	2
TAP	12	192	6
TAP	12	240	2
TAP	12	240	6
TAP	12	288	1
TAP	12	288	5
TAP	12	336	1
TAP	12	336	5
TAP	13	0	0
TAP	13	24	6
TAP	13	48	0
TAP	13	72	6
TAP	13	96	0
TAP	13	120	6
TAP	13	144	0
TAP	13	168	6
BRK	13	192	7
TAP	14	0	1
TAP	14	0	6
TAP	14	48	2
TAP	14	72	3
TAP	14	96	2
TAP	14	144	5
TAP	14	168	4
TAP	14	192	5
TAP	14	240	1
TAP	14	264	3
TAP	14	288	2
TAP	14	336	6
TAP	14	360	4
HLD	15	0	5	72
TAP	15	72	0
TAP	15	144	2
TAP	15	144	3
STR	15	192	1
SCL	15	192	1	96	48	6
TAP	15	192	4
TAP	16	0	1
TAP	16	0	6
TAP	16	48	5
TAP	16	72	4
TAP	16	96	5
TAP	16	144	2
TAP	16	168	3
TAP	16	192	2
TAP	16	240	6
TAP	16	264	4
TAP	16	288	5
TAP	16	336	1
TAP	16	360	3
HLD	17	0	2	72
TAP	17	72	7
TAP	17	144	4
TAP	17	144	5
TAP	17	192	3
STR	17	192	6
SCR	17	192	6	96	48	1
TAP	18	0	1
TAP	18	0	6
TAP	18	48	2
TAP	18	72	3
TAP	18	96	2
TAP	18	144	5
TAP	18	168	4
TAP	18	192	5
TAP	18	240	1
TAP	18	264	3
TAP	18	288	2
TAP	18	336	6
TAP	18	360	4
TAP	19	0	5
TAP	19	48	0
TAP	19	72	3
TAP	19	96	2
TAP	19	144	7
TAP	19	168	4
TAP	19	192	5
TAP	19	240	0
TAP	19	264	3
TAP	19	288	2
TAP	19	336	7
TAP	19	360	4
STR	20	0	5
SI_	20	0	5	96	48	1
TAP	20	96	0
STR	20	192	2
SI_	20	192	2	96	48	6
TAP	20	288	7
HLD	21	0	0	96
HLD	21	0	1	96
STR	21	144	6
SCL	21	144	6	96	48	3
STR	21	144	7
SCR	21	144	7	96	48	2
TAP	22	0	0
TAP	22	0	5
TAP	22	48	4
TAP	22	72	3
TAP	22	96	4
TAP	22	144	2
TAP	22	168	3
TAP	22	192	2
TAP	22	240	5
TAP	22	264	4
TAP	22	288	5
TAP	22	336	1
TAP	22	360	2
HLD	23	0	1	72
TAP	23	72	0
TAP	23	144	6
TAP	23	144	7
TAP	23	192	0
STR	23	192	5
SCR	23	192	5	96	48	0
TAP	24	0	2
TAP	24	0	7
TAP	24	48	3
TAP	24	72	4
TAP	24	96	3
TAP	24	144	5
TAP	24	168	4
TAP	24	192	5
TAP	24	240	2
TAP	24	264	3
TAP	24	288	2
TAP	24	336	6
TAP	24	360	5
HLD	25	0	6	72
TAP	25	72	7
TAP	25	144	0
TAP	25	144	1
STR	25	192	2
SCL	25	192	2	96	48	7
TAP	25	192	7
TAP	26	0	0
HLD	26	0	5	144
TAP	26	96	4
TAP	26	144	4
TAP	26	240	7
TAP	26	288	6
TAP	26	336	5
HLD	27	0	2	144
TAP	27	0	4
TAP	27	96	3
TAP	27	144	3
TAP	27	240	0
TAP	27	288	1
TAP	27	336	2
TAP	28	0	3
TAP	28	0	4
TAP	28	48	5
TAP	28	72	4
TAP	28	96	5
TAP	28	144	2
TAP	28	168	3
TAP	28	192	2
TAP	28	240	6
TAP	28	264	4
TAP	28	288	5
TAP	28	336	1
TAP	28	360	3
TAP	29	0	2
TAP	29	48	7
TAP	29	72	4
TAP	29	96	5
TAP	29	144	0
TAP	29	168	7
TAP	29	192	0
TAP	29	216	7
TAP	29	240	0
TAP	29	264	7
TAP	29	288	0
TAP	29	312	7
TAP	29	336	0
TAP	29	360	7
HLD	30	0	0	48
HLD	30	96	0	48
HLD	30	192	0	48
TAP	30	288	0
TAP	30	288	4
TAP	30	336	1
TAP	30	336	5
HLD	31	0	6	48
HLD	31	96	6	48
HLD	31	192	6	48
TAP	31	288	4
TAP	31	288	6
TAP	31	336	3
TAP	31	336	5
HLD	32	0	2	48
HLD	32	96	2	48
HLD	32	192	2	48
TAP	32	288	2
TAP	32	288	6
TAP	32	336	3
TAP	32	336	5
TAP	33	0	4
TAP	33	48	4
TAP	33	96	4
TAP	33	144	4
TAP	33	192	3
TAP	33	240	2
TAP	33	288	1
TAP	33	336	0
HLD	34	0	7	48
HLD	34	96	7	48
HLD	34	192	7	48
TAP	34	288	3
TAP	34	288	7
TAP	34	336	2
TAP	34	336	6
HLD	35	0	1	48
HLD	35	96	1	48
HLD	35	192	1	48
TAP	35	288	1
TAP	35	288	3
TAP	35	336	2
TAP	35	336	4
STR	36	0	3
SV_	36	0	3	96	48	0
STR	36	0	5
SV_	36	0	5	96	48	0
TAP	36	48	3
TAP	36	48	5
STR	36	192	1
SV_	36	192	1	96	48	4
STR	36	192	7
SV_	36	192	7	96	48	4
TAP	36	240	1
TAP	36	240	7
STR	37	0	3
SCL	37	0	3	96	48	0
STR	37	0	5
SCR	37	0	5	96	48	0
TAP	37	48	3
TAP	37	48	5
TAP	37	192	0
TAP	37	240	0
TAP	37	288	1
TAP	37	288	7
STR	38	0	0
SXL	38	0	0	96	768	3
TAP	38	192	4
TAP	39	0	5
TAP	39	192	6
HLD	40	0	7	384
TAP	40	192	5
HLD	41	0	0	384
TAP	41	192	2
STR	42	0	4
SXL	42	0	4	96	768	7
TAP	42	192	0
TAP	43	0	1
TAP	43	192	2
HLD	44	0	3	384
TAP	44	192	1
HLD	45	0	4	384
TAP	45	192	6
HLD	46	0	0	144
HLD	46	144	2	144
HLD	46	288	4	144
HLD	47	48	6	192
TAP	47	192	5
TAP	47	240	5
TAP	47	288	4
TAP	47	288	7
HLD	48	0	7	144
HLD	48	144	5	144
HLD	48	288	3	144
HLD	49	48	1	192
TAP	49	192	2
TAP	49	240	2
TAP	49	288	0
TAP	49	288	3
HLD	50	0	0	144
HLD	50	144	6	144
HLD	50	288	2	144
HLD	51	48	4	192
TAP	51	192	3
TAP	51	240	3
TAP	51	288	1
TAP	51	288	6
HLD	52	0	3	96
HLD	52	0	4	96
HLD	52	144	2	96
HLD	52	144	5	96
HLD	52	288	1	96
HLD	52	288	6	96
HLD	53	48	0	96
HLD	53	48	7	96
TAP	53	192	2
TAP	53	192	5
BRK	54	0	0
BRK	54	0	7
STR	54	48	1
SI_	54	48	1	96	48	5
TAP	54	48	6
STR	54	144	0
SI_	54	144	0	96	48	4
STR	54	240	7
SI_	54	240	7	96	48	3
STR	54	336	6
SI_	54	336	6	96	48	2
STR	55	48	5
SI_	55	48	5	96	48	1
TAP	55	144	7
STR	55	192	7
SF_	55	192	7	96	48	3
TAP	56	0	0
TAP	56	0	7
TAP	56	48	1
STR	56	48	6
SI_	56	48	6	96	48	2
STR	56	144	7
SI_	56	144	7	96	48	3
STR	56	240	0
SI_	56	240	0	96	48	4
STR	56	336	1
SI_	56	336	1	96	48	5
STR	57	48	2
SI_	57	48	2	96	48	6
TAP	57	144	0
STR	57	192	0
SF_	57	192	0	96	48	4
HLD	58	0	0	96
HLD	58	0	7	96
STR	58	144	0
SI_	58	144	0	96	48	4
TAP	58	144	7
STR	58	240	7
SI_	58	240	7	96	48	5
STR	58	336	1
SI_	58	336	1	96	48	3
STR	59	48	0
SI_	59	48	0	96	48	4
TAP	59	144	3
STR	59	192	3
SF_	59	192	3	96	48	7
TAP	60	0	1
TAP	60	0	5
STR	60	48	1
SI_	60	48	1	96	48	6
TAP	60	48	5
STR	60	144	5
SI_	60	144	5	96	48	2
STR	60	240	1
SI_	60	240	1	96	48	5
STR	60	336	7
SSR	60	336	7	96	96	3
BRK	61	192	1
BRK	61	192	6
HLD	62	0	4	192
TAP	62	192	3
TAP	62	264	2
TAP	62	336	1
TAP	63	0	1
TAP	63	72	0
TAP	63	144	7
STR	63	192	7
SCL	63	192	7	96	96	4
HLD	64	0	3	192
TAP	64	192	4
TAP	64	264	5
TAP	64	336	6
TAP	65	0	6
TAP	65	72	7
TAP	65	144	0
STR	65	192	0
SCR	65	192	0	96	96	3
HLD	66	0	4	192
TAP	66	192	3
TAP	66	264	3
TAP	66	336	3
TAP	67	0	5
TAP	67	72	5
TAP	67	144	5
TAP	67	192	1
TAP	67	264	1
TAP	67	336	1
HLD	68	0	7	192
TAP	68	144	0
TAP	68	192	0
TAP	68	264	1
TAP	68	264	6
TAP	68	336	2
TAP	68	336	5
STR	69	0	2
SXL	69	0	2	96	288	7
TAP	69	0	5
TAP	69	144	6
STR	70	0	5
SXR	70	0	5	96	288	0
TAP	70	144	1
BRK	72	0	3
BRK	72	0	4
TAP	72	48	1
TAP	72	72	0
TAP	72	96	1
TAP	72	144	6
TAP	72	168	7
TAP	72	192	6
TAP	72	240	1
TAP	72	264	0
TAP	72	288	1
TAP	72	336	6
TAP	72	360	7
TAP	73	0	6
TAP	73	48	2
TAP	73	72	3
TAP	73	120	3
TAP	73	144	1
STR	73	192	1
SCR	73	192	1	96	48	4
STR	73	192	7
SCL	73	192	7	96	48	4
TAP	74	0	0
TAP	74	0	4
TAP	74	48	6
TAP	74	72	7
TAP	74	96	6
TAP	74	144	1
TAP	74	168	0
TAP	74	192	1
TAP	74	240	6
TAP	74	264	7
TAP	74	288	6
TAP	74	336	1
TAP	74	360	0
TAP	75	0	1
TAP	75	48	5
TAP	75	72	4
TAP	75	120	4
TAP	75	144	6
STR	75	192	0
SCR	75	192	0	96	48	3
STR	75	192	6
SCL	75	192	6	96	48	3
TAP	76	0	3
TAP	76	0	7
TAP	76	48	1
TAP	76	72	0
TAP	76	96	1
TAP	76	144	6
TAP	76	168	7
TAP	76	192	6
TAP	76	240	1
TAP	76	264	0
TAP	76	288	1
TAP	76	336	6
TAP	76	360	7
TAP	77	0	6
TAP	77	48	2
TAP	77	72	3
TAP	77	120	3
TAP	77	144	1
TAP	77	192	0
TAP	77	192	7
TAP	77	240	5
TAP	77	264	4
TAP	77	312	4
TAP	77	336	6
HLD	78	0	0	96
HLD	78	0	7	96
TAP	78	144	0
TAP	78	168	7
TAP	78	192	1
TAP	78	192	6
TAP	78	264	0
TAP	78	264	1
TAP	78	336	3
TAP	78	336	4
HLD	79	0	6	96
HLD	79	0	7	96
BST	79	144	0
SCL	79	144	0	96	48	5
BST	79	144	1
SCR	79	144	1	96	48	4
TAP	80	0	2
TAP	80	0	7
TAP	80	48	3
TAP	80	72	4
TAP	80	96	3
TAP	80	144	5
TAP	80	168	4
TAP	80	192	5
TAP	80	240	2
TAP	80	264	3
TAP	80	288	2
TAP	80	336	6
TAP	80	360	5
TAP	81	0	6
TAP	81	48	1
TAP	81	72	0
TAP	81	120	0
TAP	81	144	2
STR	81	192	2
SCL	81	192	2	96	48	7
STR	81	192	7
SCL	81	192	7	96	48	4
TAP	82	0	0
TAP	82	0	5
TAP	82	48	4
TAP	82	72	3
TAP	82	96	4
TAP	82	144	2
TAP	82	168	3
TAP	82	192	2
TAP	82	240	5
TAP	82	264	4
TAP	82	288	5
TAP	82	336	1
TAP	82	360	2
TAP	83	0	1
TAP	83	48	6
TAP	83	72	7
TAP	83	120	7
TAP	83	144	5
STR	83	192	0
SCR	83	192	0	96	48	3
STR	83	192	5
SCR	83	192	5	96	48	0
HLD	84	0	2	144
TAP	84	0	7
TAP	84	96	3
TAP	84	144	3
TAP	84	240	0
TAP	84	288	1
TAP	84	336	2
TAP	85	0	3
HLD	85	0	5	144
TAP	85	96	4
TAP	85	144	4
TAP	85	240	7
TAP	85	288	6
TAP	85	336	5
TAP	86	0	3
TAP	86	0	4
TAP	86	48	3
TAP	86	48	4
TAP	86	144	0
TAP	86	144	2
TAP	86	240	5
TAP	86	240	7
TAP	86	336	3
TAP	86	336	4
TAP	87	0	2
TAP	87	24	5
TAP	87	48	2
TAP	87	72	5
TAP	87	96	1
TAP	87	120	6
TAP	87	144	1
TAP	87	168	6
TAP	87	192	0
TAP	87	216	7
TAP	87	240	0
TAP	87	264	7
BRK	87	288	0
BST	88	0	6
SI_	88	0	6	96	48	3
TAP	88	48	0
TAP	88	96	0
BST	88	144	2
SI_	88	144	2	96	48	7
TAP	88	192	4
TAP	88	240	4
BRK	88	288	6
BST	89	0	1
SI_	89	0	1	96	48	4
TAP	89	48	7
TAP	89	96	7
BST	89	144	5
SI_	89	144	5	96	48	0
TAP	89	192	3
TAP	89	240	3
BRK	89	288	1
BST	90	0	6
SCL	90	0	6	96	48	3
TAP	90	48	0
TAP	90	96	1
BST	90	144	2
SCL	90	144	2	96	48	7
TAP	90	192	4
TAP	90	240	5
BRK	90	288	6
BST	91	0	1
SCR	91	0	1	96	48	4
TAP	91	48	7
TAP	91	96	6
BST	91	144	5
SCR	91	144	5	96	48	0
TAP	91	192	3
TAP	91	240	2
BRK	91	288	1
BRK	92	0	5
TAP	92	48	4
HLD	92	48	6	72
HLD	92	120	7	72
HLD	92	192	0	72
HLD	92	264	1	72
TAP	92	336	3
BRK	93	0	2
TAP	93	24	4
TAP	93	48	2
TAP	93	72	4
TAP	93	96	1
TAP	93	120	5
TAP	93	144	1
TAP	93	168	5
TAP	93	192	0
TAP	93	216	6
TAP	93	240	0
TAP	93	264	6
BRK	93	288	7
BRK	94	0	2
HLD	94	48	1	72
TAP	94	48	3
HLD	94	120	0	72
HLD	94	192	7	72
HLD	94	264	6	72
TAP	94	336	4
BRK	95	0	3
TAP	95	24	5
TAP	95	48	3
TAP	95	72	5
TAP	95	96	2
TAP	95	120	6
TAP	95	144	2
TAP	95	168	6
TAP	95	192	1
TAP	95	216	7
TAP	95	240	1
TAP	95	264	7
BRK	95	288	0
TAP	96	0	6
TAP	96	32	6
TAP	96	64	6
TAP	96	96	5
TAP	96	96	7
TAP	96	192	1
TAP	96	224	1
TAP	96	256	1
TAP	96	288	0
TAP	96	288	2
STR	97	0	1
SI_	97	0	1	96	48	4
STR	97	0	6
SI_	97	0	6	96	48	3
STR	97	192	1
SLR	97	192	1	96	96	7
STR	97	192	6
SLL	97	192	6	96	96	0
BRK	98	96	1
BRK	98	96	6
TAP	98	192	0
TAP	98	192	1
TAP	98	224	0
TAP	98	224	1
TAP	98	256	0
TAP	98	256	1
TAP	98	288	0
TAP	98	288	1
TAP	99	0	6
TAP	99	0	7
TAP	99	32	6
TAP	99	32	7
TAP	99	64	6
TAP	99	64	7
TAP	99	96	6
TAP	99	96	7
TAP	99	192	3
TAP	99	216	4
TAP	99	240	2
TAP	99	264	5
TAP	99	288	1
TAP	99	312	6
TAP	99	336	0
TAP	99	360	7
BST	100	0	0
SCR	100	0	0	96	288	7
BRK	101	0	0

T_REC_TAP	478
T_REC_BRK	21
T_REC_XTP	0
T_REC_HLD	71
T_REC_XHO	0
T_REC_STR	65
T_REC_BST	11
T_REC_XST	0
T_REC_TTP	0
T_REC_THO	0
T_REC_SLD	76
T_REC_ALL	722
T_NUM_TAP	543
T_NUM_BRK	32
T_NUM_HLD	71
T_NUM_SLD	76
T_NUM_ALL	722
T_JUDGE_TAP	575
T_JUDGE_HLD	200
T_JUDGE_SLD	76
T_JUDGE_ALL	851
TTM_EACHPAIRS	104
TTM_SCR_TAP	271500
TTM_SCR_BRK	83200
TTM_SCR_HLD	71000
TTM_SCR_SLD	114000
TTM_SCR_ALL	539700
TTM_SCR_S	520450
TTM_SCR_SS	536500
TTM_RAT_ACV	10059

