VERSION	0.00.00	1.03.00
FES_MODE	0
BPM_DEF	170.000	170.000	170.000	170.000
MET_DEF	4	4
RESOLUTION	384
CLK_DEF	384
COMPATIBLE_CODE	MA2

BPM	0	0	170.000

HLD	2	0	5	384
HLD	3	0	4	384
HLD	4	0	3	384
TAP	5	0	2
TAP	5	192	2
TAP	5	192	3
HLD	6	0	2	384
HLD	7	0	3	384
HLD	8	0	4	384
TAP	9	0	5
TAP	9	192	3
TAP	9	192	6
TAP	10	0	2
TAP	10	48	2
TAP	10	144	1
TAP	10	144	3
TAP	10	240	0
TAP	10	240	4
TAP	10	336	5
TAP	10	336	7
TAP	11	48	6
TAP	11	144	0
TAP	11	144	7
TAP	11	192	0
TAP	11	192	7
TAP	11	288	1
TAP	11	288	6
TAP	12	0	5
TAP	12	48	5
TAP	12	144	4
TAP	12	144	6
TAP	12	240	3
TAP	12	240	7
TAP	12	336	0
TAP	12	336	2
TAP	13	48	1
TAP	13	144	0
TAP	13	144	7
BRK	13	192	0
BRK	13	192	7
TAP	14	0	5
TAP	14	96	4
TAP	14	96	6
TAP	14	192	7
TAP	14	240	7
TAP	14	288	7
TAP	15	0	1
TAP	15	48	1
TAP	15	96	0
TAP	15	192	1
TAP	15	192	7
TAP	16	0	2
TAP	16	96	1
TAP	16	96	3
TAP	16	192	0
TAP	16	240	0
TAP	16	288	0
TAP	17	0	6
TAP	17	48	6
TAP	17	96	7
TAP	17	192	0
TAP	17	192	6
TAP	18	0	6
TAP	18	96	5
TAP	18	96	7
TAP	18	192	4
TAP	18	240	4
TAP	18	288	4
TAP	19	0	2
TAP	19	48	2
TAP	19	96	2
TAP	19	96	3
TAP	19	192	3
TAP	19	192	4
TAP	19	288	2
TAP	19	288	5
BST	20	0	0
SI_	20	0	0	96	144	3
BST	20	0	7
SI_	20	0	7	96	144	4
TAP	21	0	3
TAP	21	0	4
TAP	21	96	2
TAP	21	96	5
HLD	21	144	2	144
HLD	21	144	5	144
TAP	22	0	3
TAP	22	96	2
TAP	22	96	4
TAP	22	192	3
TAP	22	240	3
TAP	22	288	3
TAP	22	288	4
HLD	23	0	5	96
HLD	23	96	6	96
TAP	23	192	7
TAP	23	288	0
TAP	23	288	5
TAP	24	0	4
TAP	24	96	3
TAP	24	96	5
TAP	24	192	4
TAP	24	240	4
TAP	24	288	3
TAP	24	288	4
HLD	25	0	2	96
HLD	25	96	1	96
TAP	25	192	0
STR	26	0	6
SCL	26	0	6	96	144	3
TAP	26	0	7
TAP	27	0	0
STR	27	0	1
SCR	27	0	1	96	144	4
TAP	28	0	5
TAP	28	48	5
TAP	28	96	4
TAP	28	192	2
TAP	28	240	2
STR	28	288	3
SCR	28	288	3	96	240	1
HLD	30	0	2	96
TAP	30	96	3
HLD	30	192	5	96
TAP	30	288	4
HLD	31	0	1	96
TAP	31	96	2
HLD	31	192	6	96
TAP	31	288	5
HLD	32	0	1	96
TAP	32	96	0
HLD	32	192	6	96
TAP	32	288	7
TAP	33	0	0
TAP	33	0	1
TAP	33	96	2
TAP	33	96	7
TAP	33	192	3
TAP	33	192	6
HLD	34	0	5	96
HLD	34	96	4	96
TAP	34	192	5
TAP	34	288	6
TAP	34	288	7
HLD	35	0	1	96
HLD	35	96	0	96
TAP	35	192	1
TAP	35	288	2
TAP	35	288	3
TAP	36	0	5
BRK	36	96	4
BRK	36	96	5
TAP	36	192	2
BRK	36	288	2
BRK	36	288	3
TAP	37	0	5
BRK	37	96	4
BRK	37	96	6
TAP	37	192	2
BRK	37	288	1
BRK	37	288	3
HLD	38	0	5	192
HLD	38	192	7	192
HLD	39	0	6	192
HLD	39	192	4	192
BST	40	0	3
SI_	40	0	3	96	144	6
STR	41	0	7
SI_	41	0	7	96	144	4
HLD	42	0	2	192
HLD	42	192	0	192
HLD	43	0	1	192
HLD	43	192	3	192
BST	44	0	4
SI_	44	0	4	96	144	1
STR	45	0	0
SI_	45	0	0	96	144	4
HLD	46	0	6	192
HLD	46	192	4	192
HLD	47	0	2	192
HLD	47	192	0	192
BST	48	0	6
SCR	48	0	6	96	144	1
STR	49	0	3
SI_	49	0	3	96	144	0
HLD	50	0	1	192
HLD	50	192	3	192
HLD	51	0	4	192
HLD	51	192	6	192
HLD	52	0	5	192
HLD	52	192	7	192
HLD	53	0	1	192
TAP	53	192	0
HLD	54	0	6	144
TAP	54	96	7
TAP	54	144	7
TAP	54	240	4
TAP	54	240	5
TAP	54	336	2
TAP	54	336	3
TAP	55	48	0
TAP	55	48	1
TAP	55	144	7
TAP	55	192	7
TAP	55	288	0
TAP	55	288	6
HLD	56	0	1	144
TAP	56	96	0
TAP	56	144	0
TAP	56	240	2
TAP	56	240	3
TAP	56	336	4
TAP	56	336	5
TAP	57	48	6
TAP	57	48	7
TAP	57	144	0
TAP	57	192	0
TAP	57	288	1
TAP	57	288	7
HLD	58	0	2	144
TAP	58	96	3
TAP	58	144	3
TAP	58	240	4
TAP	58	240	5
TAP	58	336	1
TAP	58	336	3
TAP	59	48	4
TAP	59	48	6
TAP	59	144	7
TAP	59	192	7
TAP	59	288	0
TAP	59	288	6
HLD	60	0	5	144
TAP	60	96	4
TAP	60	144	4
TAP	60	240	2
TAP	60	240	3
TAP	60	336	3
TAP	60	336	4
TAP	61	0	3
TAP	61	0	4
TAP	61	96	2
TAP	61	96	5
BRK	61	192	1
BRK	61	192	6
HLD	62	0	5	192
HLD	62	192	7	384
HLD	63	0	6	192
HLD	64	0	2	192
HLD	64	192	0	384
HLD	65	0	1	192
HLD	66	0	2	192
HLD	66	192	3	192
HLD	67	0	4	192
HLD	67	192	5	192
HLD	68	0	6	192
HLD	68	192	7	192
HLD	69	0	0	192
TAP	69	192	7
STR	70	0	1
SLR	70	0	1	96	384	0
STR	70	0	6
SLL	70	0	6	96	384	7
BRK	72	0	2
TAP	72	96	0
TAP	72	96	1
TAP	72	192	6
TAP	72	240	6
TAP	72	288	7
TAP	73	0	5
TAP	73	48	5
TAP	73	96	4
TAP	73	192	3
TAP	73	192	6
TAP	74	0	5
TAP	74	96	6
TAP	74	96	7
TAP	74	192	1
TAP	74	240	1
TAP	74	288	0
TAP	75	0	2
TAP	75	48	2
TAP	75	96	3
TAP	75	192	1
TAP	75	192	4
TAP	76	0	4
TAP	76	96	3
TAP	76	96	5
TAP	76	192	6
TAP	76	240	6
TAP	76	288	7
TAP	77	0	1
TAP	77	48	1
TAP	77	96	0
TAP	77	192	0
TAP	77	192	7
TAP	77	288	1
TAP	77	288	6
BST	78	0	2
SI_	78	0	2	96	144	7
BST	78	0	5
SI_	78	0	5	96	144	0
TAP	79	0	0
TAP	79	0	7
TAP	79	96	1
TAP	79	96	6
HLD	79	144	1	144
HLD	79	144	6	144
TAP	80	0	2
TAP	80	0	3
TAP	80	96	0
TAP	80	96	1
TAP	80	192	7
TAP	80	240	6
TAP	80	288	5
TAP	81	0	1
TAP	81	0	3
TAP	81	96	0
TAP	81	96	2
TAP	81	192	1
TAP	81	192	6
TAP	82	0	4
TAP	82	0	5
TAP	82	96	6
TAP	82	96	7
TAP	82	192	0
TAP	82	240	1
TAP	82	288	2
TAP	83	0	4
TAP	83	0	6
TAP	83	96	5
TAP	83	96	7
TAP	83	192	1
TAP	83	192	6
STR	84	0	2
SCL	84	0	2	96	144	7
TAP	84	0	3
TAP	85	0	4
STR	85	0	5
SCR	85	0	5	96	144	0
STR	86	0	3
SXR	86	0	3	96	480	0
STR	86	0	4
SXL	86	0	4	96	480	7
TAP	88	0	5
TAP	88	48	4
TAP	88	96	3
TAP	88	96	6
TAP	88	192	2
TAP	88	240	3
TAP	88	288	1
TAP	88	288	4
TAP	89	0	6
TAP	89	48	7
TAP	89	96	0
TAP	89	96	5
TAP	89	192	1
TAP	89	192	6
TAP	90	0	2
TAP	90	48	3
TAP	90	96	1
TAP	90	96	4
TAP	90	192	5
TAP	90	240	4
TAP	90	288	3
TAP	90	288	6
TAP	91	0	1
TAP	91	48	0
TAP	91	96	2
TAP	91	96	7
BRK	91	192	1
BRK	91	192	6
TAP	92	0	5
TAP	92	48	5
TAP	92	96	4
TAP	92	144	4
TAP	92	192	3
TAP	92	192	4
TAP	92	288	2
TAP	92	288	5
TAP	93	0	1
TAP	93	48	1
TAP	93	96	0
TAP	93	144	0
TAP	93	192	0
TAP	93	192	7
TAP	93	288	1
TAP	93	288	6
TAP	94	0	2
TAP	94	0	3
TAP	94	48	2
TAP	94	48	3
TAP	94	96	2
TAP	94	96	3
TAP	94	192	4
TAP	94	192	5
TAP	94	240	4
TAP	94	240	5
TAP	94	288	4
TAP	94	288	5
TAP	95	0	1
TAP	95	0	3
TAP	95	48	1
TAP	95	48	3
TAP	95	96	1
TAP	95	96	3
TAP	95	192	0
TAP	95	192	6
TAP	95	240	0
TAP	95	240	6
TAP	95	288	0
TAP	95	288	6
HLD	96	0	1	96
HLD	96	96	2	96
HLD	96	192	3	96
HLD	96	288	4	96
HLD	97	0	5	96
HLD	97	96	6	96
HLD	97	192	7	96
TAP	97	288	0
TAP	98	96	3
TAP	98	96	4
TAP	98	192	0
TAP	98	192	1
TAP	98	240	0
TAP	98	240	1
TAP	98	288	2
TAP	98	288	7
TAP	99	0	6
TAP	99	0	7
TAP	99	48	6
TAP	99	48	7
TAP	99	96	0
TAP	99	96	5
TAP	99	192	0
TAP	99	192	7
TAP	99	240	0
TAP	99	240	7
TAP	99	288	1
TAP	99	288	6
TAP	99	336	1
TAP	99	336	6
HLD	100	0	2	288
HLD	100	0	5	288
BRK	101	0	3
BRK	101	0	4

T_REC_TAP	322
T_REC_BRK	17
T_REC_XTP	0
T_REC_HLD	69
T_REC_XHO	0
T_REC_STR	12
T_REC_BST	7
T_REC_XST	0
T_REC_TTP	0
T_REC_THO	0
T_REC_SLD	19
T_REC_ALL	446
T_NUM_TAP	334
T_NUM_BRK	24
T_NUM_HLD	69
T_NUM_SLD	19
T_NUM_ALL	446
T_JUDGE_TAP	358
T_JUDGE_HLD	262
T_JUDGE_SLD	19
T_JUDGE_ALL	639
TTM_EACHPAIRS	120
TTM_SCR_TAP	167000
TTM_SCR_BRK	62400
TTM_SCR_HLD	69000
TTM_SCR_SLD	28500
TTM_SCR_ALL	326900
TTM_SCR_S	314800
TTM_SCR_SS	324500
TTM_RAT_ACV	10073

