VERSION	0.00.00	1.03.00
FES_MODE	0
BPM_DEF	170.000	170.000	170.000	170.000
MET_DEF	4	4
RESOLUTION	384
CLK_DEF	384
COMPATIBLE_CODE	MA2

BPM	0	0	170.000

TAP	2	0	2
TAP	3	0	2
TAP	4	0	3
TAP	5	0	3
TAP	6	0	4
TAP	7	0	4
TAP	8	0	5
TAP	9	0	5
TAP	10	0	6
TAP	10	192	6
TAP	11	0	6
TAP	12	0	7
TAP	12	192	7
TAP	13	0	7
TAP	14	0	0
TAP	14	96	0
TAP	14	192	0
TAP	15	0	7
TAP	15	96	7
TAP	15	192	7
TAP	16	0	6
TAP	16	96	6
TAP	16	192	6
TAP	17	0	5
TAP	17	96	5
TAP	17	192	4
TAP	17	192	5
TAP	18	0	3
TAP	18	96	3
TAP	18	192	3
TAP	19	0	2
TAP	19	96	2
TAP	19	192	2
TAP	20	0	1
TAP	20	96	1
TAP	20	192	1
TAP	21	0	0
TAP	21	96	0
TAP	21	192	0
TAP	21	192	7
TAP	22	0	1
TAP	22	96	1
TAP	22	192	1
TAP	23	0	2
TAP	23	96	2
TAP	23	192	2
TAP	24	0	3
TAP	24	96	3
TAP	24	192	3
TAP	25	0	4
TAP	25	96	4
TAP	25	192	3
TAP	25	192	4
TAP	26	0	5
TAP	26	96	5
TAP	26	192	5
TAP	27	0	6
TAP	27	96	6
TAP	27	192	6
TAP	28	0	7
TAP	28	96	7
TAP	28	192	7
TAP	29	0	0
TAP	29	96	0
TAP	29	192	0
TAP	29	192	7
HLD	30	0	6	192
HLD	31	0	5	192
HLD	32	0	4	192
HLD	33	0	3	192
HLD	34	0	2	192
HLD	35	0	1	192
HLD	36	0	0	192
BRK	37	0	7
STR	38	0	7
SI_	38	0	7	96	288	2
STR	40	0	1
SI_	40	0	1	96	288	4
STR	42	0	3
SI_	42	0	3	96	288	6
STR	44	0	5
SI_	44	0	5	96	288	0
TAP	46	0	0
TAP	46	192	1
TAP	47	0	2
TAP	47	192	3
TAP	48	0	4
TAP	48	192	5
TAP	49	0	6
TAP	49	192	7
TAP	50	0	7
TAP	50	192	6
TAP	51	0	5
TAP	51	192	4
TAP	52	0	3
TAP	52	192	2
TAP	53	0	1
TAP	53	192	0
TAP	54	0	7
TAP	54	96	7
TAP	54	192	6
TAP	54	288	6
TAP	55	0	5
TAP	55	96	5
TAP	55	192	4
TAP	56	0	3
TAP	56	96	3
TAP	56	192	2
TAP	56	288	2
TAP	57	0	1
TAP	57	96	1
TAP	57	192	0
TAP	58	0	0
TAP	58	96	0
TAP	58	192	1
TAP	58	288	1
TAP	59	0	2
TAP	59	96	2
TAP	59	192	3
TAP	60	0	4
TAP	60	96	4
TAP	60	192	5
TAP	60	288	5
TAP	61	0	6
TAP	61	96	6
TAP	61	192	7
HLD	62	0	0	192
HLD	62	0	1	192
TAP	63	0	0
TAP	63	0	1
TAP	63	192	0
TAP	63	192	1
HLD	64	0	6	192
HLD	64	0	7	192
TAP	65	0	6
TAP	65	0	7
TAP	65	192	6
TAP	65	192	7
HLD	66	0	4	192
HLD	66	0	5	192
TAP	67	0	4
TAP	67	0	5
TAP	67	192	4
TAP	67	192	5
HLD	68	0	2	192
HLD	68	0	3	192
TAP	69	0	2
TAP	69	0	3
TAP	69	192	2
TAP	69	192	3
STR	70	0	3
SI_	70	0	3	96	288	0
STR	70	0	4
SI_	70	0	4	96	288	7
BRK	72	0	0
TAP	72	96	0
TAP	72	192	1
TAP	72	288	1
TAP	73	0	2
TAP	73	0	3
TAP	73	96	2
TAP	73	96	3
TAP	73	192	2
TAP	73	192	3
TAP	74	0	4
TAP	74	96	4
TAP	74	192	5
TAP	74	288	5
TAP	75	0	6
TAP	75	0	7
TAP	75	96	6
TAP	75	96	7
TAP	75	192	6
TAP	75	192	7
TAP	76	0	7
TAP	76	96	7
TAP	76	192	6
TAP	76	288	6
TAP	77	0	4
TAP	77	0	5
TAP	77	96	4
TAP	77	96	5
TAP	77	192	4
TAP	77	192	5
TAP	78	0	3
TAP	78	96	3
TAP	78	192	2
TAP	78	288	2
TAP	79	0	0
TAP	79	0	1
TAP	79	96	0
TAP	79	96	1
TAP	79	192	0
TAP	79	192	1
BRK	80	0	0
TAP	80	96	0
TAP	80	192	1
TAP	80	288	1
TAP	81	0	2
TAP	81	96	2
TAP	81	192	3
TAP	81	288	3
TAP	82	0	4
TAP	82	96	4
TAP	82	192	5
TAP	82	288	5
TAP	83	0	6
TAP	83	96	6
TAP	83	192	0
TAP	83	192	7
TAP	84	0	7
TAP	84	96	7
TAP	84	192	6
TAP	84	288	6
TAP	85	0	5
TAP	85	96	5
TAP	85	192	4
TAP	85	288	4
TAP	86	0	3
TAP	86	96	3
TAP	86	192	2
TAP	86	288	2
TAP	87	0	1
TAP	87	96	1
TAP	87	192	0
TAP	87	192	7
TAP	88	0	0
TAP	88	96	0
TAP	88	192	1
TAP	88	240	1
TAP	88	288	1
TAP	89	0	2
TAP	89	96	2
TAP	89	192	2
TAP	89	192	3
TAP	90	0	4
TAP	90	96	4
TAP	90	192	5
TAP	90	240	5
TAP	90	288	5
TAP	91	0	6
TAP	91	96	6
TAP	91	192	6
TAP	91	192	7
TAP	92	0	7
TAP	92	96	7
TAP	92	192	6
TAP	92	240	6
TAP	92	288	6
TAP	93	0	5
TAP	93	96	5
TAP	93	192	4
TAP	93	192	5
TAP	94	0	3
TAP	94	96	3
TAP	94	192	2
TAP	94	240	2
TAP	94	288	2
TAP	95	0	1
TAP	95	96	1
TAP	95	192	0
TAP	95	192	1
TAP	96	0	2
TAP	96	0	3
TAP	96	96	2
TAP	96	96	3
TAP	96	192	4
TAP	96	192	5
TAP	96	288	4
TAP	96	288	5
TAP	97	0	3
TAP	97	0	4
TAP	97	96	2
TAP	97	96	5
TAP	97	192	1
TAP	97	192	6
TAP	97	288	0
TAP	97	288	7
TAP	98	0	0
TAP	98	0	7
TAP	98	96	1
TAP	98	96	6
TAP	98	192	2
TAP	98	192	5
TAP	98	288	3
TAP	98	288	4
TAP	99	0	3
TAP	99	0	4
TAP	99	96	3
TAP	99	96	4
TAP	99	192	3
TAP	99	192	4
TAP	99	240	3
TAP	99	240	4
TAP	99	288	3
TAP	99	288	4
HLD	100	0	2	288
HLD	100	0	5	288
BRK	101	0	2
BRK	101	0	5

T_REC_TAP	266
T_REC_BRK	5
T_REC_XTP	0
T_REC_HLD	17
T_REC_XHO	0
T_REC_STR	6
T_REC_BST	0
T_REC_XST	0
T_REC_TTP	0
T_REC_THO	0
T_REC_SLD	6
T_REC_ALL	300
T_NUM_TAP	272
T_NUM_BRK	5
T_NUM_HLD	17
T_NUM_SLD	6
T_NUM_ALL	300
T_JUDGE_TAP	277
T_JUDGE_HLD	72
T_JUDGE_SLD	6
T_JUDGE_ALL	355
TTM_EACHPAIRS	54
TTM_SCR_TAP	136000
TTM_SCR_BRK	13000
TTM_SCR_HLD	17000
TTM_SCR_SLD	9000
TTM_SCR_ALL	175000
TTM_SCR_S	169300
TTM_SCR_SS	174500
TTM_RAT_ACV	10028

