VERSION	0.00.00	1.03.00
FES_MODE	0
BPM_DEF	200.000	200.000	200.000	200.000
MET_DEF	4	4
RESOLUTION	384
CLK_DEF	384
COMPATIBLE_CODE	MA2

BPM	0	0	200.000

TAP	2	0	3
TAP	2	0	4
TAP	2	48	2
TAP	2	96	1
TAP	2	144	3
TAP	2	144	4
TAP	2	192	5
TAP	2	240	6
TAP	2	288	3
TAP	2	288	4
TAP	2	336	2
STR	3	0	1
SUL	3	0	1	96	48	5
TAP	3	0	3
STR	3	192	4
SI_	3	192	4	96	48	7
BST	4	0	0
SF_	4	0	0	96	144	4
BST	5	0	6
SLR	5	0	6	96	192	4
BST	6	0	2
SXL	6	0	2	96	288	3
SLL	6	0	2	96	288	3
TAP	7	192	4
TAP	7	192	5
TAP	7	288	3
TAP	7	288	4
TAP	8	0	2
TAP	8	0	3
TAP	8	96	1
TAP	8	96	3
TAP	8	192	4
TAP	8	192	5
TAP	8	288	4
TAP	8	288	6
TAP	9	0	1
TAP	9	0	3
TAP	9	96	0
TAP	9	96	3
TAP	9	192	4
TAP	9	192	6
TAP	9	288	4
TAP	9	288	7
TAP	10	0	4
TAP	10	0	5
TAP	10	48	3
TAP	10	96	2
TAP	10	96	4
TAP	10	192	2
TAP	10	192	3
TAP	10	240	4
TAP	10	288	3
TAP	10	288	5
TAP	11	0	1
TAP	11	0	6
TAP	11	48	1
TAP	11	48	6
TAP	11	96	3
TAP	11	96	4
TAP	11	192	2
TAP	11	192	3
STR	11	288	4
SCL	11	288	4	96	144	1
STR	11	288	5
SUL	11	288	5	96	144	0
BRK	12	0	4
BRK	12	0	5
TAP	12	288	2
TAP	12	288	5
TAP	13	0	3
HLD	13	0	4	192
STR	13	96	5
SCR	13	96	5	96	96	2
TAP	14	0	3
TAP	14	96	6
TAP	14	96	7
TAP	14	192	4
TAP	14	288	0
TAP	14	288	1
STR	15	0	2
SI_	15	0	2	96	48	0
TAP	15	0	3
TAP	15	96	5
STR	15	192	2
SI_	15	192	2	96	48	0
TAP	15	192	3
TAP	15	288	5
TAP	16	0	4
TAP	16	96	0
TAP	16	96	1
TAP	16	192	3
TAP	16	288	6
TAP	16	288	7
TAP	17	0	4
STR	17	0	5
SI_	17	0	5	96	48	7
TAP	17	96	2
TAP	17	192	4
STR	17	192	5
SI_	17	192	5	96	48	7
TAP	17	288	2
TAP	18	0	3
TAP	18	96	5
TAP	18	96	7
TAP	18	192	4
TAP	18	288	0
TAP	18	288	2
STR	19	0	2
SI_	19	0	2	96	48	7
TAP	19	0	3
TAP	19	96	4
STR	19	192	2
SI_	19	192	2	96	48	7
TAP	19	192	3
TAP	19	288	4
STR	20	0	4
SI_	20	0	4	96	48	0
TAP	20	96	2
STR	20	144	2
SI_	20	144	2	96	48	6
TAP	20	240	5
STR	20	288	5
SCR	20	288	5	96	96	2
BRK	21	192	1
BRK	21	192	6
BRK	21	240	1
BRK	21	240	6
HLD	22	0	3	384
TAP	22	96	2
TAP	22	192	4
TAP	22	288	2
HLD	23	0	4	192
TAP	23	96	5
TAP	23	192	3
TAP	23	288	2
TAP	23	288	3
HLD	24	0	1	96
HLD	24	96	3	96
TAP	24	192	4
TAP	24	240	4
STR	24	336	4
SV_	24	336	4	96	144	2
STR	24	336	5
SUR	24	336	5	96	144	2
TAP	25	288	2
TAP	25	288	5
HLD	26	0	4	384
TAP	26	96	5
TAP	26	192	3
TAP	26	288	5
HLD	27	0	3	192
TAP	27	96	2
TAP	27	192	4
TAP	27	288	4
TAP	27	288	5
TAP	28	0	2
TAP	28	48	3
TAP	28	96	1
TAP	28	96	4
TAP	28	192	3
TAP	28	192	6
TAP	28	240	3
TAP	28	240	6
TAP	28	336	3
TAP	28	336	4
TAP	29	48	7
TAP	29	96	0
TAP	29	144	1
TAP	29	144	6
TAP	29	240	2
TAP	29	240	5
TAP	29	288	2
TAP	29	288	5
HLD	30	0	5	192
TAP	30	96	6
HLD	30	192	3	192
TAP	30	240	4
TAP	30	288	4
HLD	31	0	4	192
TAP	31	96	5
TAP	31	192	2
TAP	31	288	2
TAP	31	288	3
TAP	32	0	4
TAP	32	0	6
TAP	32	96	1
TAP	32	96	3
TAP	32	192	1
TAP	32	192	7
TAP	32	240	1
TAP	32	240	7
STR	32	336	3
SV_	32	336	3	96	96	1
STR	32	336	5
SV_	32	336	5	96	96	7
TAP	33	192	0
TAP	33	192	6
TAP	33	288	2
TAP	33	288	4
HLD	34	0	2	192
TAP	34	96	1
HLD	34	192	4	192
TAP	34	240	3
TAP	34	288	3
HLD	35	0	3	192
TAP	35	96	2
TAP	35	192	5
TAP	35	288	4
TAP	35	288	5
TAP	36	0	2
STR	36	0	3
SI_	36	0	3	96	48	6
STR	36	96	1
SI_	36	96	1	96	48	4
TAP	36	192	5
STR	36	240	5
SI_	36	240	5	96	48	0
TAP	36	336	1
TAP	37	48	1
TAP	37	96	1
TAP	37	144	0
TAP	37	192	0
TAP	37	288	2
TAP	37	288	7
BST	38	0	0
SCR	38	0	0	96	96	3
BST	38	0	6
SCL	38	0	6	96	96	3
TAP	38	288	2
TAP	38	288	4
BST	39	0	1
SCR	39	0	1	96	96	4
BST	39	0	7
SCL	39	0	7	96	96	4
TAP	39	288	3
TAP	39	288	5
HLD	40	0	2	96
HLD	40	96	4	96
HLD	40	192	6	96
HLD	40	288	0	96
STR	41	0	2
SCL	41	0	2	96	96	5
TAP	41	144	4
TAP	41	192	4
TAP	41	288	1
TAP	41	288	6
HLD	42	0	5	144
HLD	42	144	4	144
HLD	42	288	3	96
STR	43	0	2
SSL	43	0	2	96	192	6
TAP	44	0	4
TAP	44	96	0
TAP	44	96	2
TAP	44	192	3
TAP	44	288	5
TAP	44	288	7
TAP	45	0	4
TAP	45	0	5
TAP	45	96	0
TAP	45	96	2
TAP	45	192	2
TAP	45	192	3
TAP	45	288	5
TAP	45	288	7
TAP	46	0	3
TAP	46	0	5
TAP	46	48	2
TAP	46	96	1
TAP	46	96	4
TAP	46	192	2
TAP	46	192	4
TAP	46	240	5
TAP	46	288	3
TAP	46	288	6
TAP	47	0	2
TAP	47	0	4
TAP	47	48	1
TAP	47	96	0
TAP	47	96	3
TAP	47	192	3
TAP	47	192	5
TAP	47	240	6
TAP	47	288	4
TAP	47	288	7
STR	48	0	0
SI_	48	0	0	96	48	4
STR	48	0	1
SI_	48	0	1	96	48	3
STR	48	192	6
SI_	48	192	6	96	48	4
STR	48	192	7
SI_	48	192	7	96	48	3
BRK	49	0	1
BRK	49	0	6
TAP	49	96	2
TAP	49	96	3
TAP	49	192	0
TAP	49	192	1
STR	49	288	4
SCL	49	288	4	96	96	1
STR	49	288	5
SUL	49	288	5	96	96	0
BRK	50	0	4
BRK	50	0	5
TAP	50	192	4
TAP	50	192	6
TAP	50	288	1
TAP	50	288	3
TAP	51	0	6
STR	51	0	7
SI_	51	0	7	96	48	2
TAP	51	96	5
STR	51	144	5
SI_	51	144	5	96	48	0
TAP	51	240	3
TAP	51	288	3
STR	52	0	2
SI_	52	0	2	96	48	7
TAP	52	0	5
BRK	52	96	3
STR	52	192	2
SI_	52	192	2	96	48	7
TAP	52	192	5
BRK	52	288	3
STR	53	0	2
SI_	53	0	2	96	48	7
TAP	53	0	6
BRK	53	96	3
STR	53	192	2
SI_	53	192	2	96	48	7
TAP	53	192	6
BRK	53	288	3
TAP	54	0	4
STR	54	0	5
SCR	54	0	5	96	48	0
STR	54	96	4
SCL	54	96	4	96	48	1
TAP	54	192	6
STR	54	240	6
SCL	54	240	6	96	48	3
TAP	54	336	2
TAP	55	48	0
TAP	55	48	1
TAP	55	96	0
TAP	55	96	1
TAP	55	192	2
TAP	55	192	3
STR	55	288	4
SI_	55	288	4	96	48	1
STR	55	288	5
SI_	55	288	5	96	48	0
BRK	56	0	4
BRK	56	0	5
BRK	56	144	6
BRK	56	144	7
BST	56	192	6
SCL	56	192	6	96	96	3
BST	56	192	7
SCR	56	192	7	96	96	2
TAP	57	96	0
TAP	57	96	1
TAP	57	192	2
TAP	57	192	3
STR	57	288	4
SCL	57	288	4	96	96	1
STR	57	288	5
SUL	57	288	5	96	96	0
BRK	58	0	4
BRK	58	0	5
TAP	58	192	1
TAP	58	192	3
TAP	58	288	4
TAP	58	288	6
STR	59	0	0
SI_	59	0	0	96	48	5
TAP	59	0	1
TAP	59	96	2
STR	59	144	2
SI_	59	144	2	96	48	7
TAP	59	240	4
TAP	59	288	4
TAP	60	0	2
STR	60	0	5
SI_	60	0	5	96	48	0
BRK	60	96	4
TAP	60	192	2
STR	60	192	5
SI_	60	192	5	96	48	0
BRK	60	288	4
TAP	61	0	1
STR	61	0	5
SI_	61	0	5	96	48	0
BRK	61	96	4
TAP	61	192	1
STR	61	192	5
SI_	61	192	5	96	48	0
BRK	61	288	4
TAP	62	0	3
TAP	62	0	6
TAP	62	48	5
TAP	62	96	1
TAP	62	96	4
TAP	62	144	2
TAP	62	192	3
TAP	62	192	6
TAP	62	240	5
TAP	62	288	1
TAP	62	288	4
TAP	63	0	3
TAP	63	0	7
TAP	63	48	6
TAP	63	96	0
TAP	63	96	4
TAP	63	144	1
TAP	63	192	3
TAP	63	192	7
TAP	63	240	6
TAP	63	288	0
TAP	63	288	4
TAP	64	0	2
TAP	64	0	3
TAP	64	48	2
TAP	64	48	3
TAP	64	96	1
TAP	64	96	4
TAP	64	144	1
TAP	64	144	4
TAP	64	192	0
TAP	64	192	5
TAP	64	240	0
TAP	64	240	5
STR	64	288	6
SI_	64	288	6	96	48	3
STR	64	288	7
SI_	64	288	7	96	48	2
BRK	65	0	6
BRK	65	0	7
TAP	65	96	1
TAP	65	96	4
TAP	65	192	3
TAP	65	192	6
STR	65	288	4
SCL	65	288	4	96	48	1
STR	65	288	5
SUL	65	288	5	96	48	0
BRK	66	0	4
BRK	66	0	5
TAP	66	96	2
TAP	66	96	7
STR	66	192	6
SI_	66	192	6	96	48	3
TAP	66	192	7
TAP	66	240	6
TAP	66	240	7
STR	66	336	2
SI_	66	336	2	96	48	7
TAP	67	48	4
TAP	67	96	4
TAP	67	192	1
TAP	67	192	6
STR	67	288	4
SCL	67	288	4	96	48	1
STR	67	288	5
SUL	67	288	5	96	48	0
BRK	68	0	4
BRK	68	0	5
TAP	68	96	2
TAP	68	96	7
TAP	68	192	6
STR	68	192	7
SI_	68	192	7	96	48	2
TAP	68	240	6
TAP	68	240	7
STR	68	336	5
SI_	68	336	5	96	48	0
TAP	69	48	3
TAP	69	96	3
TAP	69	192	1
TAP	69	192	4
TAP	69	288	3
TAP	69	288	6
STR	70	0	5
SI_	70	0	5	96	48	2
STR	70	96	1
SI_	70	96	1	96	48	6
STR	70	192	4
SI_	70	192	4	96	48	7
STR	70	288	0
SI_	70	288	0	96	48	3
STR	71	0	5
SI_	71	0	5	96	48	0
STR	71	96	2
SI_	71	96	2	96	48	7
STR	71	192	6
SI_	71	192	6	96	48	3
TAP	71	288	2
BRK	72	0	0
BRK	72	0	5
TAP	72	96	3
BRK	72	144	2
BRK	72	144	7
TAP	72	240	4
BRK	72	288	0
BRK	72	288	5
BST	72	336	0
SI_	72	336	0	96	48	4
BRK	72	336	5
TAP	73	96	7
TAP	73	192	4
TAP	73	192	5
TAP	73	264	2
TAP	73	264	3
TAP	73	336	0
TAP	73	336	1
TAP	74	0	7
TAP	74	32	6
TAP	74	64	5
TAP	74	96	0
TAP	74	128	1
TAP	74	160	2
TAP	74	192	6
TAP	74	224	5
TAP	74	256	4
TAP	74	288	1
TAP	74	320	2
TAP	74	352	3
STR	75	0	5
SCR	75	0	5	96	288	2
STR	76	96	4
SCL	76	96	4	96	384	1
STR	76	96	5
SUL	76	96	5	96	384	0
TAP	78	0	3
TAP	78	24	4
TAP	78	48	3

T_REC_TAP	322
T_REC_BRK	37
T_REC_XTP	0
T_REC_HLD	20
T_REC_XHO	0
T_REC_STR	68
T_REC_BST	10
T_REC_XST	0
T_REC_TTP	0
T_REC_THO	0
T_REC_SLD	79
T_REC_ALL	536
T_NUM_TAP	390
T_NUM_BRK	47
T_NUM_HLD	20
T_NUM_SLD	79
T_NUM_ALL	536
T_JUDGE_TAP	437
T_JUDGE_HLD	72
T_JUDGE_SLD	79
T_JUDGE_ALL	588
TTM_EACHPAIRS	153
TTM_SCR_TAP	195000
TTM_SCR_BRK	122200
TTM_SCR_HLD	20000
TTM_SCR_SLD	118500
TTM_SCR_ALL	455700
TTM_SCR_S	437500
TTM_SCR_SS	451000
TTM_RAT_ACV	10104

