VERSION	0.00.00	1.03.00
FES_MODE	0
BPM_DEF	200.000	200.000	200.000	200.000
MET_DEF	4	4
RESOLUTION	384
CLK_DEF	384
COMPATIBLE_CODE	MA2

BPM	0	0	200.000

TAP	1	288	3
TAP	1	288	4
TAP	2	0	1
TAP	2	96	0
TAP	2	96	7
TAP	2	192	6
TAP	2	288	4
TAP	2	288	5
BRK	3	0	1
BRK	3	0	6
TAP	3	96	7
TAP	3	192	0
TAP	3	288	1
STR	4	0	2
SCL	4	0	2	96	144	7
TAP	4	0	3
TAP	5	0	4
STR	5	0	5
SCR	5	0	5	96	144	0
TAP	6	0	2
STR	6	0	3
SCR	6	0	3	96	144	6
STR	7	0	4
SCL	7	0	4	96	144	1
TAP	7	0	5
HLD	8	0	2	96
HLD	8	96	1	96
HLD	8	192	0	96
HLD	8	288	7	96
HLD	9	0	6	96
HLD	9	96	5	96
HLD	9	192	4	96
STR	9	288	3
SCR	9	288	3	96	240	1
TAP	11	0	0
TAP	11	0	1
TAP	11	96	2
TAP	11	96	7
TAP	11	192	3
TAP	11	192	6
STR	11	288	4
SCL	11	288	4	96	288	1
STR	11	288	5
SUL	11	288	5	96	288	0
TAP	13	0	7
TAP	13	96	7
BRK	13	192	0
BRK	13	192	6
TAP	14	0	5
TAP	14	96	4
TAP	14	192	2
TAP	14	192	3
TAP	14	288	1
TAP	14	288	4
TAP	15	0	2
TAP	15	96	3
TAP	15	192	4
TAP	15	192	5
TAP	15	288	3
TAP	15	288	6
TAP	16	0	5
TAP	16	96	4
TAP	16	192	2
TAP	16	192	3
TAP	16	288	1
TAP	16	288	4
TAP	17	0	2
TAP	17	0	3
TAP	17	96	3
TAP	17	96	4
TAP	17	192	4
TAP	17	192	6
TAP	18	0	6
TAP	18	96	7
TAP	18	192	0
TAP	18	192	1
TAP	18	288	2
TAP	18	288	7
TAP	19	0	1
TAP	19	96	0
TAP	19	192	6
TAP	19	192	7
TAP	19	288	0
TAP	19	288	5
HLD	20	0	7	96
HLD	20	144	0	96
HLD	20	144	6	96
TAP	20	288	1
TAP	20	288	5
TAP	21	0	2
TAP	21	0	3
TAP	21	96	4
TAP	21	96	5
BRK	21	192	1
BRK	21	192	6
BRK	21	240	1
BRK	21	240	6
HLD	22	0	4	672
TAP	22	96	3
TAP	22	192	3
STR	22	288	3
SUL	22	288	3	96	144	6
TAP	23	288	5
HLD	24	0	3	672
TAP	24	96	4
TAP	24	192	4
STR	24	288	4
SUR	24	288	4	96	144	1
TAP	25	288	2
HLD	26	0	4	288
TAP	26	96	1
TAP	26	192	2
TAP	26	288	3
TAP	27	0	4
TAP	27	0	6
TAP	27	96	5
TAP	27	192	1
TAP	27	192	4
TAP	27	288	2
HLD	28	0	4	96
HLD	28	0	6	96
TAP	28	192	2
TAP	28	192	3
STR	28	240	2
SCL	28	240	2	96	192	5
TAP	28	240	3
TAP	29	288	0
TAP	29	288	7
TAP	30	0	6
TAP	30	96	6
TAP	30	96	7
TAP	30	192	1
TAP	30	288	0
TAP	30	288	1
TAP	31	0	2
TAP	31	96	1
TAP	31	96	3
TAP	31	192	5
TAP	31	288	4
TAP	31	288	6
HLD	32	0	0	96
HLD	32	0	7	96
TAP	32	192	1
TAP	32	192	6
STR	32	240	1
SV_	32	240	1	96	144	3
STR	32	240	6
SV_	32	240	6	96	144	4
TAP	33	192	2
TAP	33	192	5
TAP	33	288	1
TAP	33	288	6
TAP	34	0	2
TAP	34	96	1
TAP	34	96	3
TAP	34	192	0
TAP	34	288	1
TAP	34	288	7
TAP	35	0	6
TAP	35	96	5
TAP	35	96	7
HLD	35	192	3	96
HLD	35	192	4	96
TAP	36	0	5
TAP	36	48	5
TAP	36	96	4
TAP	36	192	1
TAP	36	192	3
STR	36	240	1
SUR	36	240	1	96	144	5
TAP	36	240	3
TAP	37	192	6
TAP	37	192	7
TAP	37	288	0
TAP	37	288	5
STR	38	0	1
SCR	38	0	1	96	96	3
STR	38	0	6
SCL	38	0	6	96	96	4
STR	39	0	0
SCR	39	0	0	96	96	3
STR	39	0	7
SCL	39	0	7	96	96	4
HLD	40	0	1	96
HLD	40	96	3	96
HLD	40	192	4	96
TAP	40	288	6
HLD	41	0	0	96
HLD	41	0	7	96
TAP	41	144	1
TAP	41	144	6
BRK	41	192	1
BRK	41	192	6
HLD	42	0	2	192
HLD	42	192	3	192
HLD	43	0	4	192
TAP	43	192	5
HLD	44	0	5	96
TAP	44	96	4
HLD	44	192	2	96
TAP	44	288	3
HLD	45	0	6	96
TAP	45	96	4
HLD	45	192	1	96
STR	45	288	3
SCL	45	288	3	96	384	5
TAP	47	192	1
TAP	47	192	6
HLD	48	0	1	96
HLD	48	0	3	96
HLD	48	192	4	96
HLD	48	192	6	96
TAP	49	0	1
TAP	49	0	5
TAP	49	96	2
TAP	49	192	3
TAP	49	192	4
TAP	49	288	2
TAP	49	288	5
BRK	50	0	1
BRK	50	0	6
TAP	50	96	4
TAP	50	96	5
TAP	50	192	6
TAP	50	192	7
TAP	50	288	0
TAP	50	288	1
HLD	51	0	2	144
TAP	51	96	3
TAP	51	144	3
TAP	51	240	1
TAP	51	240	4
TAP	51	288	1
TAP	51	288	4
TAP	52	0	4
HLD	52	0	5	576
BRK	52	96	0
TAP	52	192	4
BRK	52	288	0
TAP	53	0	4
BRK	53	96	0
TAP	53	192	4
BRK	53	288	0
BRK	53	288	7
TAP	54	0	4
TAP	54	0	5
TAP	54	96	2
TAP	54	96	3
TAP	54	192	0
TAP	54	192	6
STR	54	240	0
SV_	54	240	0	96	144	3
STR	54	240	6
SV_	54	240	6	96	144	3
TAP	55	192	2
TAP	55	192	4
TAP	55	288	5
TAP	56	0	1
TAP	56	0	6
STR	56	96	2
SI_	56	96	2	96	96	7
STR	56	96	3
SI_	56	96	3	96	96	6
TAP	57	0	0
TAP	57	0	5
TAP	57	96	1
TAP	57	192	2
TAP	57	288	3
TAP	57	288	4
BRK	58	0	1
BRK	58	0	6
TAP	58	96	2
TAP	58	96	3
TAP	58	192	0
TAP	58	192	1
TAP	58	288	6
TAP	58	288	7
HLD	59	0	5	96
TAP	59	96	4
TAP	59	144	4
TAP	59	240	3
TAP	59	240	6
TAP	59	288	3
TAP	59	288	6
HLD	60	0	2	576
TAP	60	0	3
BRK	60	96	7
TAP	60	192	3
BRK	60	288	7
TAP	61	0	3
BRK	61	96	7
TAP	61	192	3
BRK	61	288	0
BST	61	288	7
SCL	61	288	7	96	192	4
TAP	62	0	0
TAP	62	96	0
TAP	62	192	0
STR	62	288	0
SCR	62	288	0	96	192	3
TAP	62	288	7
TAP	63	0	7
TAP	63	96	7
TAP	63	192	6
TAP	63	288	5
TAP	64	0	2
TAP	64	0	3
TAP	64	48	2
TAP	64	48	3
TAP	64	96	1
TAP	64	96	4
TAP	64	192	4
TAP	64	192	5
TAP	64	240	4
TAP	64	240	5
TAP	64	288	3
TAP	64	288	6
BRK	65	0	2
BRK	65	0	5
TAP	65	192	2
TAP	65	192	5
TAP	65	288	3
STR	65	288	4
SI_	65	288	4	96	48	7
TAP	66	0	0
TAP	66	96	0
TAP	66	192	1
TAP	66	288	2
TAP	66	288	7
TAP	67	0	3
TAP	67	0	6
TAP	67	96	5
TAP	67	192	3
TAP	67	192	4
STR	67	288	2
SI_	67	288	2	96	48	7
TAP	67	288	3
TAP	68	0	6
TAP	68	96	6
TAP	68	192	5
TAP	68	288	1
TAP	68	288	4
TAP	69	0	0
TAP	69	0	7
TAP	69	96	4
TAP	69	96	6
TAP	69	192	1
TAP	69	192	3
TAP	69	288	4
STR	69	288	5
SI_	69	288	5	96	48	0
TAP	70	0	1
TAP	70	96	2
TAP	70	192	4
TAP	70	192	5
TAP	70	288	3
TAP	70	288	6
TAP	71	0	0
TAP	71	0	1
TAP	71	96	1
TAP	71	96	3
TAP	71	192	4
TAP	71	192	6
TAP	71	288	0
TAP	71	288	1
HLD	72	0	2	96
HLD	72	0	7	96
HLD	72	144	3	96
HLD	72	144	6	96
TAP	72	288	4
TAP	72	288	5
STR	72	336	4
SCL	72	336	4	96	912	1
STR	72	336	5
SUL	72	336	5	96	912	0
BRK	76	96	1
BRK	76	96	6

T_REC_TAP	249
T_REC_BRK	27
T_REC_XTP	0
T_REC_HLD	43
T_REC_XHO	0
T_REC_STR	28
T_REC_BST	1
T_REC_XST	0
T_REC_TTP	0
T_REC_THO	0
T_REC_SLD	29
T_REC_ALL	377
T_NUM_TAP	277
T_NUM_BRK	28
T_NUM_HLD	43
T_NUM_SLD	29
T_NUM_ALL	377
T_JUDGE_TAP	305
T_JUDGE_HLD	141
T_JUDGE_SLD	29
T_JUDGE_ALL	475
TTM_EACHPAIRS	121
TTM_SCR_TAP	138500
TTM_SCR_BRK	72800
TTM_SCR_HLD	43000
TTM_SCR_SLD	43500
TTM_SCR_ALL	297800
TTM_SCR_S	286150
TTM_SCR_SS	295000
TTM_RAT_ACV	10094

