VERSION	0.00.00	1.03.00
FES_MODE	0
BPM_DEF	200.000	200.000	200.000	200.000
MET_DEF	4	4
RESOLUTION	384
CLK_DEF	384
COMPATIBLE_CODE	MA2

BPM	0	0	200.000

TAP	2	0	5
TAP	2	96	4
TAP	2	192	3
STR	2	288	2
SCL	2	288	2	96	240	5
TAP	4	0	4
TAP	4	192	3
TAP	4	192	5
TAP	5	0	2
TAP	5	192	1
TAP	5	192	3
TAP	6	0	5
TAP	6	192	4
TAP	6	192	6
HLD	7	0	3	192
HLD	7	0	4	192
HLD	8	0	5	192
TAP	8	192	4
HLD	9	0	2	192
TAP	9	192	3
HLD	10	0	3	192
HLD	10	0	4	192
TAP	11	0	3
TAP	11	96	3
TAP	11	192	3
TAP	11	192	4
STR	11	288	3
SI_	11	288	3	96	240	0
STR	11	288	4
SI_	11	288	4	96	240	7
TAP	13	0	7
TAP	13	96	0
BRK	13	192	1
BRK	13	192	6
TAP	14	0	1
TAP	14	96	1
TAP	14	192	0
TAP	14	192	1
TAP	15	0	6
TAP	15	96	6
TAP	15	192	6
TAP	15	192	7
TAP	16	0	0
TAP	16	96	0
TAP	16	192	0
TAP	16	192	7
TAP	17	0	0
TAP	17	0	7
TAP	17	96	0
TAP	17	96	7
TAP	17	192	1
TAP	17	192	6
TAP	18	0	5
TAP	18	96	5
TAP	18	192	4
TAP	18	192	5
TAP	19	0	2
TAP	19	96	2
TAP	19	192	2
TAP	19	192	3
STR	20	0	3
SI_	20	0	3	96	240	0
STR	20	0	4
SI_	20	0	4	96	240	7
BRK	21	192	1
BRK	21	192	6
HLD	22	0	5	192
TAP	22	192	4
HLD	23	0	2	192
TAP	23	192	3
HLD	24	0	5	192
TAP	24	192	4
TAP	25	0	3
TAP	25	96	3
TAP	25	192	3
TAP	25	192	4
HLD	26	0	1	192
TAP	26	192	0
HLD	27	0	6	192
TAP	27	192	7
STR	28	0	0
SI_	28	0	0	96	288	3
STR	28	0	7
SI_	28	0	7	96	288	4
TAP	29	192	2
TAP	29	192	5
TAP	30	0	5
TAP	30	96	5
TAP	30	192	5
TAP	31	0	3
TAP	31	96	3
TAP	31	192	3
TAP	31	192	4
TAP	32	0	2
TAP	32	96	2
TAP	32	192	2
TAP	33	0	4
TAP	33	96	4
TAP	33	192	3
TAP	33	192	4
TAP	34	0	1
TAP	34	96	1
TAP	34	192	1
TAP	35	0	7
TAP	35	96	7
TAP	35	192	0
TAP	35	192	7
TAP	36	0	0
TAP	36	0	7
TAP	36	96	0
TAP	36	96	7
STR	36	192	1
SUR	36	192	1	96	288	5
TAP	36	192	6
TAP	38	0	0
TAP	38	0	7
TAP	38	192	2
TAP	38	192	5
STR	39	0	1
SI_	39	0	1	96	144	3
STR	39	0	6
SI_	39	0	6	96	144	4
TAP	40	0	5
TAP	40	96	5
TAP	40	192	6
TAP	40	288	6
TAP	41	0	7
TAP	41	96	7
TAP	41	192	0
TAP	41	192	6
HLD	42	0	2	192
TAP	42	192	3
HLD	43	0	5	192
TAP	43	192	4
TAP	44	0	2
TAP	44	0	3
TAP	44	192	4
TAP	44	192	5
TAP	45	0	1
TAP	45	0	3
TAP	45	192	4
TAP	45	192	6
STR	46	0	2
SLL	46	0	2	96	480	3
STR	46	0	5
SLR	46	0	5	96	480	4
HLD	48	0	3	192
HLD	48	0	4	192
TAP	49	0	2
TAP	49	0	5
BRK	50	0	1
TAP	50	96	0
TAP	50	192	2
TAP	50	192	7
TAP	51	0	6
TAP	51	96	7
TAP	51	192	0
TAP	51	192	5
TAP	52	0	0
TAP	52	96	1
TAP	52	192	2
TAP	52	288	3
TAP	53	0	4
TAP	53	0	5
TAP	53	96	4
TAP	53	96	5
TAP	53	192	3
TAP	53	192	6
TAP	54	0	2
TAP	54	96	2
TAP	54	192	1
TAP	54	192	3
TAP	55	0	5
TAP	55	96	5
TAP	55	192	4
TAP	55	192	6
HLD	56	0	2	96
HLD	56	0	3	96
STR	56	192	4
SCL	56	192	4	96	288	1
STR	56	192	5
SUL	56	192	5	96	288	0
BRK	58	0	6
TAP	58	96	7
TAP	58	192	0
TAP	58	192	5
TAP	59	0	1
TAP	59	96	0
TAP	59	192	2
TAP	59	192	7
TAP	60	0	7
TAP	60	96	6
TAP	60	192	5
TAP	60	288	4
TAP	61	0	2
TAP	61	0	3
TAP	61	96	2
TAP	61	96	3
TAP	61	192	1
TAP	61	192	4
TAP	62	0	1
TAP	62	96	1
TAP	62	192	0
TAP	62	192	2
TAP	63	0	6
TAP	63	96	6
TAP	63	192	5
TAP	63	192	7
TAP	64	0	0
TAP	64	0	7
TAP	64	96	0
TAP	64	96	7
TAP	64	192	1
TAP	64	192	6
TAP	64	288	1
TAP	64	288	6
BRK	65	0	2
BRK	65	0	5
TAP	65	192	3
TAP	65	192	4
TAP	65	288	3
TAP	65	288	4
TAP	66	0	3
TAP	66	0	4
TAP	66	192	2
TAP	66	192	5
TAP	67	0	1
TAP	67	96	0
TAP	67	192	7
TAP	67	288	6
TAP	68	0	4
TAP	68	0	5
TAP	68	192	3
TAP	68	192	6
TAP	69	0	6
TAP	69	96	7
TAP	69	192	0
TAP	69	288	1
TAP	70	0	2
TAP	70	0	3
TAP	70	192	1
TAP	70	192	4
TAP	71	0	3
TAP	71	0	4
TAP	71	96	3
TAP	71	96	4
TAP	71	192	2
TAP	71	192	5
TAP	71	288	2
TAP	71	288	5
HLD	72	0	3	144
HLD	72	0	4	144
HLD	72	288	1	1344
HLD	72	288	6	1344

T_REC_TAP	197
T_REC_BRK	8
T_REC_XTP	0
T_REC_HLD	21
T_REC_XHO	0
T_REC_STR	14
T_REC_BST	0
T_REC_XST	0
T_REC_TTP	0
T_REC_THO	0
T_REC_SLD	14
T_REC_ALL	254
T_NUM_TAP	211
T_NUM_BRK	8
T_NUM_HLD	21
T_NUM_SLD	14
T_NUM_ALL	254
T_JUDGE_TAP	219
T_JUDGE_HLD	126
T_JUDGE_SLD	14
T_JUDGE_ALL	359
TTM_EACHPAIRS	73
TTM_SCR_TAP	105500
TTM_SCR_BRK	20800
TTM_SCR_HLD	21000
TTM_SCR_SLD	21000
TTM_SCR_ALL	168300
TTM_SCR_S	162500
TTM_SCR_SS	167500
TTM_RAT_ACV	10047

