VERSION	0.00.00	1.03.00
FES_MODE	0
BPM_DEF	200.000	200.000	200.000	200.000
MET_DEF	4	4
RESOLUTION	384
CLK_DEF	384
COMPATIBLE_CODE	MA2

BPM	0	0	200.000

TAP	4	0	0
TAP	4	192	0
TAP	5	0	7
TAP	5	192	7
TAP	6	0	0
TAP	6	192	0
TAP	7	0	0
TAP	7	0	7
TAP	8	0	1
TAP	8	96	1
TAP	8	192	1
TAP	9	0	0
TAP	9	96	0
TAP	9	192	0
TAP	10	0	7
TAP	10	96	7
TAP	10	192	7
TAP	11	0	6
TAP	11	96	6
TAP	11	192	6
BRK	12	0	0
BRK	12	0	7
TAP	14	0	0
TAP	14	96	0
TAP	14	192	0
TAP	15	0	1
TAP	15	96	1
TAP	15	192	1
TAP	16	0	2
TAP	16	96	2
TAP	16	192	2
TAP	17	0	3
TAP	17	96	3
TAP	17	192	3
TAP	17	192	4
TAP	18	0	4
TAP	18	96	4
TAP	18	192	4
TAP	19	0	5
TAP	19	96	5
TAP	19	192	5
TAP	20	0	6
TAP	20	96	6
TAP	20	192	6
TAP	21	0	7
TAP	21	96	7
TAP	21	192	0
TAP	21	192	7
HLD	22	0	6	384
HLD	24	0	7	384
HLD	26	0	0	384
HLD	28	0	1	384
TAP	30	0	0
TAP	30	192	0
TAP	31	0	0
TAP	31	96	0
TAP	31	192	0
TAP	32	0	7
TAP	32	192	7
TAP	33	0	7
TAP	33	96	7
TAP	33	192	7
TAP	34	0	6
TAP	34	192	6
TAP	35	0	6
TAP	35	96	6
TAP	35	192	6
TAP	36	0	5
TAP	36	192	5
TAP	37	0	4
TAP	37	0	5
TAP	37	192	3
TAP	37	192	4
STR	38	0	3
SI_	38	0	3	96	288	0
STR	40	0	4
SI_	40	0	4	96	288	7
HLD	42	0	0	384
TAP	44	0	7
TAP	44	192	7
TAP	45	0	0
TAP	45	192	0
HLD	46	0	0	384
HLD	46	0	7	384
TAP	48	0	1
TAP	48	0	6
TAP	48	192	1
TAP	48	192	6
TAP	49	0	1
TAP	49	0	6
BRK	50	0	0
TAP	50	96	0
TAP	50	192	0
TAP	51	0	1
TAP	51	96	1
TAP	51	192	0
TAP	51	192	1
TAP	52	0	2
TAP	52	96	2
TAP	52	192	2
TAP	53	0	3
TAP	53	0	4
TAP	53	96	3
TAP	53	96	4
TAP	53	192	3
TAP	53	192	4
TAP	54	0	4
TAP	54	96	4
TAP	54	192	4
TAP	55	0	5
TAP	55	96	5
TAP	55	192	4
TAP	55	192	5
TAP	56	0	6
TAP	56	96	6
TAP	56	192	6
TAP	57	0	0
TAP	57	0	7
BRK	58	0	7
TAP	58	96	7
TAP	58	192	7
TAP	59	0	6
TAP	59	96	6
TAP	59	192	6
TAP	59	192	7
TAP	60	0	5
TAP	60	96	5
TAP	60	192	5
TAP	61	0	3
TAP	61	0	4
TAP	61	96	3
TAP	61	96	4
TAP	61	192	3
TAP	61	192	4
TAP	62	0	3
TAP	62	96	3
TAP	62	192	3
TAP	63	0	2
TAP	63	96	2
TAP	63	192	2
TAP	63	192	3
TAP	64	0	1
TAP	64	96	1
TAP	64	192	1
TAP	65	0	0
TAP	65	0	7
BRK	66	0	7
TAP	66	96	7
TAP	66	192	6
TAP	66	288	6
TAP	67	0	5
TAP	67	96	5
TAP	67	192	4
TAP	68	0	3
TAP	68	96	3
TAP	68	192	2
TAP	68	288	2
TAP	69	0	1
TAP	69	96	1
TAP	69	192	0
TAP	70	0	0
TAP	70	0	7
TAP	70	96	0
TAP	70	96	7
TAP	70	192	1
TAP	70	192	6
TAP	70	288	1
TAP	70	288	6
TAP	71	0	2
TAP	71	0	5
TAP	71	96	2
TAP	71	96	5
TAP	71	192	3
TAP	71	192	4
HLD	72	0	3	1152
HLD	72	0	4	1152
STR	75	192	3
SI_	75	192	3	96	288	0
STR	75	192	4
SI_	75	192	4	96	288	7
TAP	78	0	0
TAP	78	0	7

T_REC_TAP	160
T_REC_BRK	5
T_REC_XTP	0
T_REC_HLD	9
T_REC_XHO	0
T_REC_STR	4
T_REC_BST	0
T_REC_XST	0
T_REC_TTP	0
T_REC_THO	0
T_REC_SLD	4
T_REC_ALL	182
T_NUM_TAP	164
T_NUM_BRK	5
T_NUM_HLD	9
T_NUM_SLD	4
T_NUM_ALL	182
T_JUDGE_TAP	169
T_JUDGE_HLD	104
T_JUDGE_SLD	4
T_JUDGE_ALL	277
TTM_EACHPAIRS	32
TTM_SCR_TAP	82000
TTM_SCR_BRK	13000
TTM_SCR_HLD	9000
TTM_SCR_SLD	6000
TTM_SCR_ALL	110000
TTM_SCR_S	106250
TTM_SCR_SS	109500
TTM_RAT_ACV	10045

