VERSION	0.00.00	1.03.00
FES_MODE	0
BPM_DEF	160.000	160.000	160.000	160.000
MET_DEF	4	4
RESOLUTION	384
CLK_DEF	384
COMPATIBLE_CODE	MA2

BPM	0	0	160.000

STR	2	0	1
SCL	2	0	1	96	96	2
STR	2	0	5
SI_	2	0	5	96	96	1
TAP	2	336	0
TAP	2	336	7
STR	3	0	0
SSL	3	0	0	96	96	4
TAP	3	0	7
TAP	3	288	3
TAP	3	288	5
TAP	3	336	3
TAP	3	336	5
STR	4	0	3
SLL	4	0	3	96	96	4
STR	4	0	5
SLR	4	0	5	96	96	4
TAP	4	288	2
TAP	4	288	5
HLD	5	0	1	72
HLD	5	72	2	72
TAP	5	144	3
HLD	5	192	6	72
HLD	5	264	5	72
TAP	5	336	4
TAP	6	0	3
TAP	6	48	2
TAP	6	96	0
TAP	6	96	1
TAP	6	144	2
TAP	6	192	3
TAP	6	192	4
TAP	6	240	5
TAP	6	288	6
TAP	6	288	7
TAP	6	336	5
TAP	7	0	2
TAP	7	0	3
TAP	7	48	1
TAP	7	96	0
TAP	7	96	7
TAP	7	144	2
TAP	7	192	4
TAP	7	192	5
TAP	7	240	6
TAP	7	288	0
TAP	7	288	7
TAP	7	336	5
TAP	8	0	3
TAP	8	24	4
TAP	8	48	3
TAP	8	72	4
TAP	8	96	2
TAP	8	120	5
TAP	8	144	2
TAP	8	168	5
TAP	8	192	1
TAP	8	216	6
TAP	8	240	1
TAP	8	264	6
TAP	8	288	0
TAP	8	312	7
TAP	8	336	0
TAP	8	360	7
TAP	9	0	0
TAP	9	24	0
TAP	9	48	0
TAP	9	72	0
STR	9	96	0
SCL	9	96	0	96	48	5
SCR	9	96	0	96	48	3
BST	9	192	0
SF_	9	192	0	96	48	4
BRK	9	288	0
BRK	10	0	2
BRK	10	0	6
STR	10	96	5
SLL	10	96	5	96	96	7
TAP	10	120	4
TAP	10	144	5
TAP	10	168	4
TAP	10	288	0
TAP	10	336	0
TAP	11	0	1
TAP	11	0	5
TAP	11	48	4
STR	11	96	2
SLR	11	96	2	96	96	0
TAP	11	120	3
TAP	11	144	2
TAP	11	168	3
TAP	11	288	7
TAP	11	336	7
TAP	12	0	2
TAP	12	0	6
TAP	12	48	5
STR	12	96	3
SLL	12	96	3	96	96	5
TAP	12	120	4
TAP	12	144	3
TAP	12	168	4
TAP	12	288	7
TAP	12	336	0
BRK	13	0	1
BRK	13	0	6
STR	13	96	0
SI_	13	96	0	96	48	4
TAP	13	120	7
TAP	13	144	0
TAP	13	168	7
BST	13	192	0
SCL	13	192	0	96	48	5
SCR	13	192	0	96	48	3
BRK	13	288	0
BRK	14	0	2
BRK	14	0	6
STR	14	96	1
SLR	14	96	1	96	72	0
TAP	14	120	0
TAP	14	144	1
STR	14	168	0
SLL	14	168	0	96	72	2
TAP	15	0	3
TAP	15	0	4
TAP	15	48	2
TAP	15	48	5
STR	15	96	6
SLL	15	96	6	96	72	7
TAP	15	120	7
TAP	15	144	6
STR	15	168	7
SLR	15	168	7	96	72	5
TAP	16	0	3
TAP	16	0	4
TAP	16	48	1
TAP	16	48	6
STR	16	96	0
SLR	16	96	0	96	72	7
TAP	16	120	7
TAP	16	144	0
STR	16	168	7
SLL	16	168	7	96	72	1
BRK	17	0	0
BRK	17	0	5
TAP	17	96	0
TAP	17	120	7
TAP	17	144	0
TAP	17	168	7
BST	17	192	0
SI_	17	192	0	96	48	4
BST	17	192	7
SI_	17	192	7	96	48	3
BRK	17	240	1
BRK	17	240	6
BRK	17	288	0
BRK	17	288	7
TAP	18	0	2
TAP	18	0	5
TAP	18	48	6
TAP	18	72	7
TAP	18	96	6
TAP	18	144	0
TAP	18	144	5
TAP	18	192	2
TAP	18	216	3
TAP	18	264	5
TAP	18	288	4
TAP	18	336	3
TAP	18	336	6
HLD	19	0	1	48
TAP	19	48	3
TAP	19	72	2
TAP	19	96	4
TAP	19	120	3
TAP	19	168	4
TAP	19	168	6
TAP	19	216	4
TAP	19	216	6
TAP	19	264	0
TAP	19	264	7
TAP	19	288	0
TAP	19	288	7
TAP	19	336	1
TAP	19	336	6
TAP	20	0	2
TAP	20	0	5
TAP	20	48	1
TAP	20	72	0
TAP	20	96	1
TAP	20	144	2
TAP	20	144	7
TAP	20	192	5
TAP	20	216	4
TAP	20	264	2
TAP	20	288	3
TAP	20	336	1
TAP	20	336	4
HLD	21	0	6	48
TAP	21	48	4
TAP	21	72	5
TAP	21	96	3
TAP	21	120	4
TAP	21	168	1
TAP	21	168	3
TAP	21	216	1
TAP	21	216	3
TAP	21	264	6
BRK	21	288	5
BRK	21	288	7
TAP	22	0	1
TAP	22	0	6
TAP	22	48	2
TAP	22	72	3
TAP	22	96	2
TAP	22	144	1
TAP	22	144	4
TAP	22	192	6
TAP	22	216	7
TAP	22	264	1
TAP	22	288	0
TAP	22	336	2
TAP	22	336	7
HLD	23	0	5	48
TAP	23	48	7
TAP	23	72	6
TAP	23	96	0
TAP	23	120	7
TAP	23	168	1
TAP	23	168	3
TAP	23	216	1
TAP	23	216	3
TAP	23	264	4
TAP	23	264	5
TAP	23	288	4
TAP	23	288	5
TAP	23	336	3
TAP	23	336	4
TAP	24	0	2
TAP	24	0	5
TAP	24	48	1
TAP	24	48	6
TAP	24	96	0
TAP	24	96	7
TAP	24	128	0
TAP	24	128	7
TAP	24	160	0
TAP	24	160	7
TAP	24	192	0
TAP	24	192	7
TAP	24	216	1
TAP	24	240	2
TAP	24	264	3
TAP	24	288	4
STR	24	288	5
SI_	24	288	5	96	48	7
STR	25	0	0
SI_	25	0	0	96	48	4
TAP	25	0	5
TAP	25	96	0
STR	25	96	3
SI_	25	96	3	96	48	1
TAP	25	192	3
BRK	25	288	7
HLD	26	0	2	72
HLD	26	0	3	72
TAP	26	144	4
TAP	26	144	6
HLD	26	192	4	72
HLD	26	192	6	72
TAP	26	336	1
TAP	26	336	3
HLD	27	0	1	72
HLD	27	0	3	72
TAP	27	144	4
TAP	27	144	5
HLD	27	192	4	72
HLD	27	192	5	72
TAP	27	336	6
TAP	27	336	7
HLD	28	0	6	72
HLD	28	0	7	72
TAP	28	144	0
TAP	28	144	1
HLD	28	192	0	72
HLD	28	192	1	72
HLD	28	336	7	264
BRK	29	0	5
BRK	29	72	4
BRK	29	144	3
BRK	29	216	2
TAP	29	288	1
TAP	29	288	6
TAP	29	336	0
TAP	29	336	5
HLD	30	0	4	72
HLD	30	0	7	72
TAP	30	144	1
TAP	30	144	6
HLD	30	192	1	72
HLD	30	192	6	72
TAP	30	336	0
TAP	30	336	3
HLD	31	0	0	72
HLD	31	0	3	72
TAP	31	144	1
TAP	31	144	6
HLD	31	192	1	72
HLD	31	192	6	72
TAP	31	336	5
TAP	31	336	7
HLD	32	0	5	72
HLD	32	0	7	72
TAP	32	144	0
TAP	32	144	2
HLD	32	192	0	72
HLD	32	192	2	72
TAP	32	336	4
TAP	32	336	5
TAP	33	0	3
TAP	33	0	4
STR	33	72	2
SCR	33	72	2	96	72	5
TAP	33	72	5
TAP	33	144	7
BRK	33	192	0
TAP	33	264	7
TAP	33	324	0
TAP	33	324	6
STR	34	0	1
SI_	34	0	1	96	48	4
TAP	34	48	0
TAP	34	96	1
TAP	34	96	7
TAP	34	144	6
TAP	34	192	5
TAP	34	216	4
TAP	34	240	5
TAP	34	288	3
TAP	34	288	4
TAP	34	336	2
TAP	34	336	5
STR	35	0	6
SI_	35	0	6	96	48	3
TAP	35	48	7
TAP	35	96	0
TAP	35	96	6
TAP	35	144	1
TAP	35	192	2
TAP	35	216	3
TAP	35	240	2
TAP	35	288	1
TAP	35	288	4
TAP	36	0	6
TAP	36	24	7
TAP	36	48	6
TAP	36	96	1
TAP	36	120	0
TAP	36	144	1
TAP	36	192	6
TAP	36	216	7
TAP	36	240	5
STR	36	288	0
SI_	36	288	0	96	48	4
TAP	36	312	7
TAP	36	336	1
TAP	36	360	6
BRK	37	0	0
TAP	37	96	2
TAP	37	96	5
BRK	37	168	4
BRK	37	168	6
BRK	37	228	0
BRK	37	228	1
BRK	37	288	3
BRK	37	288	4
BRK	37	336	2
BRK	37	336	5
BST	38	0	1
SCR	38	0	1	96	48	4
BRK	38	0	6
TAP	38	48	0
TAP	38	96	1
TAP	38	96	7
TAP	38	144	6
TAP	38	192	5
TAP	38	216	4
TAP	38	240	5
TAP	38	288	3
TAP	38	288	4
TAP	38	336	2
TAP	38	336	5
STR	39	0	6
SCL	39	0	6	96	48	3
TAP	39	48	7
TAP	39	96	0
TAP	39	96	6
TAP	39	144	1
TAP	39	192	2
TAP	39	216	3
TAP	39	240	2
TAP	39	288	0
TAP	39	288	7
TAP	40	0	5
TAP	40	24	4
TAP	40	48	6
TAP	40	96	2
TAP	40	120	3
TAP	40	144	1
TAP	40	192	5
TAP	40	216	4
TAP	40	240	7
TAP	40	288	2
TAP	40	312	3
TAP	40	336	0
BST	41	0	6
SI_	41	0	6	96	24	3
BST	41	72	0
SI_	41	72	0	96	24	4
BRK	41	72	6
BRK	41	144	0
BST	41	144	7
SI_	41	144	7	96	24	3
BRK	41	216	3
BRK	41	216	7
BRK	41	288	1
BRK	41	288	5
STR	42	0	2
SUR	42	0	2	96	192	4
HLD	42	0	6	288
HLD	43	0	1	288
STR	43	0	5
SXL	43	0	5	96	192	0
STR	44	0	0
SXL	44	0	0	96	192	5
HLD	44	0	6	288
HLD	45	0	1	288
STR	45	0	5
SXR	45	0	5	96	192	2
STR	46	0	2
SXR	46	0	2	96	192	7
HLD	46	0	4	288
HLD	47	0	2	288
STR	47	0	6
SXL	47	0	6	96	192	3
STR	48	0	2
SXL	48	0	2	96	192	7
HLD	48	0	5	288
HLD	49	0	1	96
HLD	49	0	6	96
TAP	49	192	0
STR	49	192	7
SSR	49	192	7	96	72	3
TAP	50	0	2
TAP	50	48	2
HLD	50	96	2	120
TAP	50	168	3
TAP	50	216	3
TAP	50	264	2
TAP	50	264	3
TAP	50	288	2
TAP	50	288	3
TAP	51	0	5
TAP	51	48	5
HLD	51	96	5	120
TAP	51	168	4
TAP	51	216	4
TAP	51	264	4
TAP	51	264	5
TAP	51	288	4
TAP	51	288	5
TAP	52	0	1
TAP	52	48	1
HLD	52	96	1	120
TAP	52	168	0
TAP	52	216	0
TAP	52	264	0
TAP	52	264	1
TAP	52	288	0
TAP	52	288	1
TAP	53	0	7
TAP	53	48	7
HLD	53	96	7	120
TAP	53	168	0
TAP	53	216	0
TAP	53	264	0
TAP	53	264	7
TAP	53	288	1
TAP	53	288	6
TAP	54	0	0
TAP	54	0	7
TAP	54	48	0
TAP	54	96	0
TAP	54	96	1
TAP	54	144	1
TAP	54	192	1
TAP	54	192	2
TAP	54	240	2
TAP	54	288	2
TAP	54	288	3
TAP	54	336	3
TAP	55	0	3
TAP	55	0	4
TAP	55	48	4
TAP	55	96	4
TAP	55	96	5
TAP	55	144	5
TAP	55	192	5
TAP	55	192	6
TAP	55	240	6
TAP	55	288	6
TAP	55	288	7
TAP	55	336	7
TAP	56	0	0
TAP	56	24	7
TAP	56	48	0
TAP	56	72	7
TAP	56	96	1
TAP	56	120	6
TAP	56	144	1
TAP	56	168	6
TAP	56	192	2
TAP	56	204	3
TAP	56	216	4
TAP	56	228	5
TAP	56	240	6
TAP	56	252	7
TAP	56	264	0
TAP	56	276	1
TAP	56	288	2
TAP	56	300	3
TAP	56	312	4
TAP	56	324	5
TAP	56	336	6
TAP	56	348	7
TAP	56	360	0
TAP	56	372	1
STR	57	0	2
SI_	57	0	2	96	48	7
STR	57	0	6
SI_	57	0	6	96	48	3
TAP	57	96	2
TAP	57	96	6
STR	57	192	0
SF_	57	192	0	96	48	4
TAP	57	192	4
BRK	58	0	2
BRK	58	0	6
TAP	58	48	4
TAP	58	48	5
TAP	58	96	1
TAP	58	120	0
TAP	58	120	2
TAP	58	168	6
TAP	58	168	7
TAP	58	216	0
TAP	58	216	5
TAP	58	264	2
TAP	58	288	1
TAP	58	288	3
TAP	58	336	0
TAP	58	336	7
TAP	59	0	6
TAP	59	48	4
TAP	59	48	5
TAP	59	96	1
TAP	59	96	3
TAP	59	120	1
TAP	59	120	3
TAP	59	168	4
TAP	59	168	5
TAP	59	216	3
TAP	59	216	6
TAP	59	264	2
TAP	59	288	1
TAP	59	288	3
TAP	59	336	0
TAP	59	336	7
TAP	60	0	1
TAP	60	0	6
TAP	60	48	2
TAP	60	48	3
TAP	60	96	6
TAP	60	120	5
TAP	60	120	7
TAP	60	168	0
TAP	60	168	1
TAP	60	216	2
TAP	60	216	7
TAP	60	264	5
TAP	60	288	4
TAP	60	288	6
TAP	60	336	0
TAP	60	336	7
TAP	61	0	6
TAP	61	48	4
TAP	61	48	5
TAP	61	96	1
TAP	61	96	3
TAP	61	120	1
TAP	61	120	3
TAP	61	168	4
TAP	61	168	5
TAP	61	216	6
TAP	61	216	7
TAP	61	264	0
TAP	61	264	1
BRK	61	288	2
BRK	61	288	7
TAP	62	0	1
TAP	62	0	5
TAP	62	48	6
TAP	62	48	7
TAP	62	96	2
TAP	62	120	1
TAP	62	120	3
TAP	62	168	4
TAP	62	168	5
TAP	62	216	6
TAP	62	216	7
TAP	62	264	1
TAP	62	288	0
TAP	62	288	2
TAP	62	336	3
TAP	62	336	4
TAP	63	0	5
TAP	63	48	6
TAP	63	48	7
TAP	63	96	0
TAP	63	96	2
TAP	63	120	0
TAP	63	120	2
TAP	63	168	3
TAP	63	168	4
TAP	63	216	6
TAP	63	216	7
TAP	63	264	0
TAP	63	264	5
TAP	63	288	0
TAP	63	288	5
TAP	63	336	1
TAP	63	336	4
BST	64	0	2
SCL	64	0	2	96	48	7
TAP	64	72	3
TAP	64	96	2
TAP	64	144	6
BST	64	192	5
SCR	64	192	5	96	48	0
TAP	64	264	4
TAP	64	288	5
TAP	64	336	1
BST	65	0	2
SCL	65	0	2	96	48	7
TAP	65	72	3
TAP	65	96	2
TAP	65	144	6
BRK	65	192	6
BRK	65	192	7
BRK	65	240	0
BRK	65	240	5
BRK	65	288	1
BRK	65	288	4
BRK	65	336	2
BRK	65	336	3
TAP	66	0	4
TAP	66	0	5
TAP	66	48	7
TAP	66	96	1
TAP	66	96	3
TAP	66	120	1
TAP	66	120	3
TAP	66	168	4
TAP	66	168	6
TAP	66	216	0
TAP	66	216	7
TAP	66	264	1
STR	66	288	0
SI_	66	288	0	96	48	3
TAP	66	288	2
TAP	66	336	1
STR	67	0	0
SI_	67	0	0	96	48	5
TAP	67	0	6
TAP	67	48	7
STR	67	96	0
SI_	67	96	0	96	48	4
TAP	67	96	2
TAP	67	144	1
TAP	67	192	0
TAP	67	192	6
TAP	67	240	7
TAP	67	288	0
TAP	67	288	4
TAP	67	336	1
TAP	68	0	2
TAP	68	0	3
TAP	68	48	0
TAP	68	96	4
TAP	68	96	6
TAP	68	120	4
TAP	68	120	6
TAP	68	168	2
TAP	68	168	3
TAP	68	216	0
TAP	68	216	1
TAP	68	264	6
TAP	68	288	5
STR	68	288	7
SI_	68	288	7	96	48	4
TAP	68	336	6
TAP	69	0	1
STR	69	0	7
SI_	69	0	7	96	48	2
TAP	69	48	0
TAP	69	96	5
STR	69	96	7
SI_	69	96	7	96	48	3
TAP	69	144	6
TAP	69	192	1
TAP	69	192	7
TAP	69	240	0
BRK	69	288	6
BRK	69	288	7
TAP	70	0	4
TAP	70	0	5
TAP	70	48	2
TAP	70	48	7
TAP	70	96	1
TAP	70	96	3
TAP	70	120	1
TAP	70	120	3
TAP	70	168	4
TAP	70	168	6
TAP	70	216	5
TAP	70	216	7
TAP	70	264	1
STR	70	288	0
SCR	70	288	0	96	48	3
TAP	70	288	2
TAP	70	336	1
STR	71	0	0
SCL	71	0	0	96	48	5
TAP	71	0	5
TAP	71	48	7
STR	71	96	0
SI_	71	96	0	96	48	4
TAP	71	96	3
TAP	71	144	1
TAP	71	192	0
TAP	71	192	5
TAP	71	240	7
TAP	71	288	0
TAP	71	288	4
TAP	71	336	2
HLD	72	0	1	48
HLD	72	0	3	48
HLD	72	96	3	48
HLD	72	96	4	48
HLD	72	192	4	48
HLD	72	192	6	48
STR	72	288	7
SI_	72	288	7	96	48	4
SI_	72	288	7	96	48	5
STR	73	0	7
SI_	73	0	7	96	48	1
SI_	73	0	7	96	48	2
STR	73	96	7
SF_	73	96	7	96	48	3
TAP	73	192	7
BRK	73	288	0
TAP	74	0	1
TAP	74	0	7
TAP	74	48	2
TAP	74	48	6
STR	74	96	5
SLR	74	96	5	96	72	3
TAP	74	120	3
TAP	74	144	5
STR	74	168	3
SLL	74	168	3	96	72	7
TAP	75	0	0
TAP	75	0	6
TAP	75	48	1
TAP	75	48	5
STR	75	96	2
SLL	75	96	2	96	72	4
TAP	75	120	4
TAP	75	144	2
STR	75	168	4
SLR	75	168	4	96	72	0
TAP	76	0	1
TAP	76	0	6
TAP	76	48	2
TAP	76	48	5
STR	76	96	4
SLR	76	96	4	96	72	2
TAP	76	120	2
TAP	76	144	4
STR	76	168	2
SLL	76	168	2	96	72	6
BRK	77	0	0
BRK	77	0	5
STR	77	96	7
SI_	77	96	7	96	48	3
TAP	77	120	0
TAP	77	144	7
TAP	77	168	0
BST	77	192	7
SCL	77	192	7	96	48	4
SCR	77	192	7	96	48	2
BRK	77	288	7
BRK	78	0	1
BRK	78	0	5
STR	78	96	7
SLL	78	96	7	96	72	1
TAP	78	120	1
TAP	78	144	7
STR	78	168	1
SLR	78	168	1	96	72	6
TAP	79	0	0
TAP	79	0	5
TAP	79	48	1
STR	79	96	2
SLL	79	96	2	96	72	4
TAP	79	120	4
TAP	79	144	2
STR	79	168	4
SLL	79	168	4	96	72	6
TAP	80	0	7
TAP	80	24	0
TAP	80	48	7
TAP	80	72	0
TAP	80	96	6
TAP	80	120	1
TAP	80	144	6
TAP	80	168	1
TAP	80	192	5
TAP	80	204	4
TAP	80	216	3
TAP	80	228	2
TAP	80	240	1
TAP	80	252	0
TAP	80	264	7
TAP	80	276	6
TAP	80	288	5
TAP	80	300	4
TAP	80	312	3
TAP	80	324	2
TAP	80	336	1
TAP	80	348	0
TAP	80	360	7
TAP	80	372	6
BRK	81	0	1
BRK	81	0	5
BST	81	192	0
SI_	81	192	0	96	48	4
BST	81	192	7
SI_	81	192	7	96	48	3
BRK	81	240	1
BRK	81	240	6
BRK	81	288	0
BRK	81	288	7
BRK	82	0	2
BRK	82	0	5
STR	82	96	0
SI_	82	96	0	96	24	3
TAP	82	96	7
STR	82	192	0
SI_	82	192	0	96	24	5
STR	82	264	0
SF_	82	264	0	96	24	4
TAP	82	336	0

T_REC_TAP	600
T_REC_BRK	66
T_REC_XTP	0
T_REC_HLD	51
T_REC_XHO	0
T_REC_STR	61
T_REC_BST	14
T_REC_XST	0
T_REC_TTP	0
T_REC_THO	0
T_REC_SLD	80
T_REC_ALL	872
T_NUM_TAP	661
T_NUM_BRK	80
T_NUM_HLD	51
T_NUM_SLD	80
T_NUM_ALL	872
T_JUDGE_TAP	741
T_JUDGE_HLD	129
T_JUDGE_SLD	80
T_JUDGE_ALL	950
TTM_EACHPAIRS	230
TTM_SCR_TAP	330500
TTM_SCR_BRK	208000
TTM_SCR_HLD	51000
TTM_SCR_SLD	120000
TTM_SCR_ALL	709500
TTM_SCR_S	680500
TTM_SCR_SS	701500
TTM_RAT_ACV	10114

