VERSION	0.00.00	1.03.00
FES_MODE	0
BPM_DEF	160.000	160.000	160.000	160.000
MET_DEF	4	4
RESOLUTION	384
CLK_DEF	384
COMPATIBLE_CODE	MA2

BPM	0	0	160.000

HLD	2	0	5	384
TAP	2	336	4
HLD	3	0	4	384
TAP	3	288	3
TAP	3	336	3
HLD	4	0	3	192
TAP	4	144	2
HLD	4	192	2	192
STR	5	0	5
SV_	5	0	5	96	96	3
TAP	5	288	2
TAP	5	288	4
HLD	6	0	5	96
HLD	6	192	4	96
HLD	7	0	3	96
HLD	7	192	2	96
HLD	8	0	1	96
HLD	8	192	0	96
TAP	9	0	7
TAP	9	48	7
STR	9	96	0
SI_	9	96	0	96	48	4
STR	9	192	7
SI_	9	192	7	96	48	3
TAP	9	288	0
BRK	10	0	1
BRK	10	0	6
TAP	10	96	5
TAP	10	144	5
TAP	10	192	3
TAP	10	240	3
TAP	10	288	5
TAP	10	336	5
TAP	11	0	0
TAP	11	48	0
TAP	11	96	5
TAP	11	144	5
TAP	11	192	3
TAP	11	240	2
TAP	11	240	4
TAP	11	288	2
TAP	11	288	4
TAP	12	0	1
TAP	12	48	1
TAP	12	96	4
TAP	12	144	4
TAP	12	192	2
TAP	12	240	1
TAP	12	240	3
TAP	12	288	1
TAP	12	288	3
TAP	13	0	1
TAP	13	0	6
TAP	13	96	0
STR	13	96	7
SI_	13	96	7	96	48	3
STR	13	192	0
SI_	13	192	0	96	48	4
TAP	13	288	7
BRK	14	0	1
BRK	14	0	6
TAP	14	96	2
TAP	14	144	2
TAP	14	192	4
TAP	14	240	4
TAP	14	288	2
TAP	14	336	2
TAP	15	0	7
TAP	15	48	7
TAP	15	96	2
TAP	15	144	2
TAP	15	192	4
TAP	15	240	3
TAP	15	240	5
TAP	15	288	3
TAP	15	288	5
TAP	16	0	6
TAP	16	48	6
TAP	16	96	3
TAP	16	144	3
TAP	16	192	5
TAP	16	240	4
TAP	16	240	6
TAP	16	288	4
TAP	16	288	6
TAP	17	0	3
TAP	17	0	6
BRK	17	192	0
BRK	17	192	7
BRK	17	240	1
BRK	17	240	6
BRK	17	288	2
BRK	17	288	5
TAP	18	0	1
TAP	18	0	3
TAP	18	48	4
STR	18	96	5
SI_	18	96	5	96	48	0
TAP	18	144	5
STR	18	192	1
SI_	18	192	1	96	48	4
TAP	18	240	1
TAP	18	288	7
TAP	19	0	4
TAP	19	0	6
TAP	19	48	3
STR	19	96	2
SI_	19	96	2	96	48	7
TAP	19	144	2
STR	19	192	6
SI_	19	192	6	96	48	3
TAP	19	240	6
TAP	19	288	0
TAP	20	0	1
TAP	20	0	3
TAP	20	48	4
STR	20	96	5
SI_	20	96	5	96	48	0
TAP	20	144	5
STR	20	192	1
SI_	20	192	1	96	48	4
TAP	20	240	1
TAP	20	288	7
TAP	21	0	4
TAP	21	0	6
TAP	21	48	3
STR	21	96	2
SCL	21	96	2	96	96	5
HLD	21	96	4	192
TAP	22	0	4
TAP	22	0	6
TAP	22	48	3
STR	22	96	2
SI_	22	96	2	96	48	7
TAP	22	144	2
STR	22	192	6
SI_	22	192	6	96	48	3
TAP	22	240	6
TAP	22	288	0
TAP	23	0	1
TAP	23	0	3
TAP	23	48	4
STR	23	96	5
SI_	23	96	5	96	48	0
TAP	23	144	5
STR	23	192	1
SI_	23	192	1	96	48	4
TAP	23	240	1
TAP	23	288	7
TAP	24	0	4
STR	24	0	6
SXL	24	0	6	96	192	1
BRK	25	0	4
BRK	25	0	5
BRK	25	96	0
BRK	25	96	7
BRK	25	192	2
BRK	25	192	3
BRK	25	288	1
BRK	25	288	6
HLD	26	0	3	96
STR	26	0	7
SCL	26	0	7	96	48	5
HLD	26	192	2	96
STR	26	192	6
SCL	26	192	6	96	48	4
HLD	27	0	1	96
STR	27	0	5
SCL	27	0	5	96	48	3
HLD	27	192	0	96
STR	27	192	4
SCL	27	192	4	96	48	2
TAP	28	0	0
TAP	28	0	4
TAP	28	96	2
TAP	28	96	6
TAP	28	144	2
TAP	28	144	6
TAP	28	192	2
TAP	28	192	6
TAP	28	288	7
TAP	28	336	0
TAP	29	0	0
TAP	29	72	1
TAP	29	72	4
TAP	29	144	7
TAP	29	216	3
TAP	29	216	6
TAP	29	288	0
TAP	29	288	7
STR	30	0	0
SCR	30	0	0	96	48	2
HLD	30	0	4	96
STR	30	192	1
SCR	30	192	1	96	48	3
HLD	30	192	5	96
STR	31	0	2
SCR	31	0	2	96	48	4
HLD	31	0	6	96
STR	31	192	3
SCR	31	192	3	96	48	5
HLD	31	192	7	96
TAP	32	0	3
TAP	32	0	7
TAP	32	96	1
TAP	32	96	5
TAP	32	144	1
TAP	32	144	5
TAP	32	192	1
TAP	32	192	5
TAP	32	288	4
TAP	32	336	3
TAP	33	0	2
TAP	33	0	5
BRK	33	192	0
BRK	33	192	7
BRK	33	256	3
BRK	33	256	4
BRK	33	320	2
BRK	33	320	5
BRK	34	0	1
BRK	34	0	6
TAP	34	96	3
TAP	34	144	3
TAP	34	192	2
TAP	34	192	5
TAP	34	240	2
TAP	34	240	5
TAP	34	288	4
TAP	34	336	4
TAP	35	0	2
TAP	35	0	6
TAP	35	48	2
TAP	35	48	6
TAP	35	96	3
TAP	35	144	3
TAP	35	192	1
TAP	35	192	5
TAP	35	240	1
TAP	35	240	5
TAP	35	288	0
TAP	35	336	0
TAP	36	0	2
TAP	36	0	6
TAP	36	48	2
TAP	36	48	6
TAP	36	96	7
TAP	36	144	7
TAP	36	192	0
TAP	36	192	6
TAP	36	240	1
TAP	36	240	5
TAP	36	288	2
TAP	36	288	4
HLD	37	0	1	96
HLD	37	0	5	96
BRK	37	168	2
BRK	37	168	6
BRK	37	240	1
BRK	37	240	5
BRK	37	288	1
BRK	37	288	5
BRK	37	336	0
BRK	37	336	7
BRK	38	0	1
BRK	38	0	6
TAP	38	96	4
TAP	38	144	4
TAP	38	192	2
TAP	38	192	5
TAP	38	240	2
TAP	38	240	5
TAP	38	288	3
TAP	38	336	3
TAP	39	0	1
TAP	39	0	5
TAP	39	48	1
TAP	39	48	5
TAP	39	96	4
TAP	39	144	4
TAP	39	192	2
TAP	39	192	6
TAP	39	240	2
TAP	39	240	6
TAP	39	288	7
TAP	39	336	7
TAP	40	0	1
TAP	40	0	5
TAP	40	48	1
TAP	40	48	5
TAP	40	96	0
TAP	40	144	0
TAP	40	192	1
TAP	40	192	7
TAP	40	240	2
TAP	40	240	6
TAP	40	288	3
TAP	40	288	5
BRK	41	0	2
BRK	41	0	6
BRK	41	72	2
BRK	41	72	6
BRK	41	144	1
BRK	41	144	5
BRK	41	216	1
BRK	41	216	5
BRK	41	288	0
BRK	41	288	4
TAP	42	0	3
STR	42	0	4
SCR	42	0	4	96	192	7
STR	43	0	0
SCR	43	0	0	96	192	3
TAP	43	0	7
TAP	44	0	3
STR	44	0	4
SCR	44	0	4	96	192	7
TAP	45	0	0
TAP	45	0	7
TAP	45	96	1
TAP	45	192	2
TAP	45	288	3
STR	46	0	3
SCL	46	0	3	96	192	0
TAP	46	0	4
TAP	47	0	0
STR	47	0	7
SCL	47	0	7	96	192	4
STR	48	0	3
SCL	48	0	3	96	192	0
TAP	48	0	4
TAP	49	0	0
STR	49	0	7
SCL	49	0	7	96	192	4
TAP	50	0	2
TAP	50	48	2
TAP	50	96	3
TAP	50	144	2
TAP	50	192	4
TAP	50	240	4
HLD	50	288	3	96
TAP	50	336	4
TAP	51	0	5
TAP	51	48	5
TAP	51	96	4
TAP	51	144	5
TAP	51	192	3
TAP	51	240	3
HLD	51	288	4	96
TAP	51	336	3
TAP	52	0	2
TAP	52	48	2
TAP	52	96	3
TAP	52	144	2
TAP	52	192	4
TAP	52	240	4
HLD	52	288	3	96
TAP	52	336	4
TAP	53	0	5
TAP	53	48	5
TAP	53	96	4
TAP	53	144	5
TAP	53	192	4
TAP	53	240	4
TAP	53	288	3
TAP	53	288	4
TAP	54	0	2
TAP	54	48	2
TAP	54	96	3
TAP	54	144	1
TAP	54	192	4
TAP	54	240	4
TAP	54	288	3
TAP	54	336	6
TAP	55	0	5
TAP	55	48	5
TAP	55	96	4
TAP	55	144	6
TAP	55	192	3
TAP	55	240	3
TAP	55	288	3
TAP	55	288	4
STR	56	0	3
SI_	56	0	3	96	48	7
STR	56	0	4
SI_	56	0	4	96	48	6
STR	56	192	3
SI_	56	192	3	96	48	1
STR	56	192	4
SI_	56	192	4	96	48	0
TAP	57	0	5
TAP	57	0	6
TAP	57	96	1
TAP	57	96	2
STR	57	192	0
SI_	57	192	0	96	48	3
STR	57	192	7
SI_	57	192	7	96	48	4
TAP	58	0	1
TAP	58	0	6
TAP	58	48	3
TAP	58	96	5
TAP	58	144	6
TAP	58	144	7
TAP	58	192	0
TAP	58	192	5
TAP	58	240	6
TAP	58	240	7
TAP	58	288	0
TAP	58	288	5
TAP	58	336	6
TAP	58	336	7
TAP	59	0	5
TAP	59	48	4
TAP	59	96	2
TAP	59	144	0
TAP	59	144	1
TAP	59	192	2
TAP	59	192	7
TAP	59	240	0
TAP	59	240	1
TAP	59	288	2
TAP	59	288	7
TAP	59	336	0
TAP	59	336	1
TAP	60	0	2
TAP	60	48	3
TAP	60	96	5
TAP	60	144	6
TAP	60	144	7
TAP	60	192	0
TAP	60	192	5
TAP	60	240	6
TAP	60	240	7
TAP	60	288	0
TAP	60	288	5
TAP	60	336	6
TAP	60	336	7
TAP	61	0	4
TAP	61	48	4
TAP	61	96	3
TAP	61	144	2
TAP	61	144	4
BRK	61	192	0
BRK	61	192	7
BRK	61	240	1
BRK	61	240	6
BRK	61	288	2
BRK	61	288	5
TAP	62	0	2
TAP	62	48	3
TAP	62	96	4
TAP	62	144	2
TAP	62	144	6
TAP	62	192	1
TAP	62	192	7
TAP	62	240	0
TAP	62	240	6
TAP	62	288	1
TAP	62	288	7
TAP	62	336	0
TAP	62	336	6
TAP	63	0	5
TAP	63	48	4
TAP	63	96	3
TAP	63	144	1
TAP	63	144	5
TAP	63	192	0
TAP	63	192	6
TAP	63	240	1
TAP	63	240	7
TAP	63	288	0
TAP	63	288	6
TAP	63	336	1
TAP	63	336	7
STR	64	0	6
SI_	64	0	6	96	48	4
STR	64	0	7
SI_	64	0	7	96	48	3
STR	64	192	0
SI_	64	192	0	96	48	4
STR	64	192	1
SI_	64	192	1	96	48	3
STR	65	0	0
SI_	65	0	0	96	48	3
STR	65	0	7
SI_	65	0	7	96	48	4
TAP	65	192	0
TAP	65	192	7
TAP	65	240	1
TAP	65	240	6
BRK	65	288	2
BRK	65	288	5
TAP	66	0	3
TAP	66	48	4
TAP	66	96	5
TAP	66	144	3
TAP	66	144	6
TAP	66	192	1
TAP	66	192	7
TAP	66	240	0
TAP	66	240	5
TAP	66	288	1
TAP	66	288	7
TAP	66	336	0
TAP	66	336	5
TAP	67	0	4
TAP	67	48	3
TAP	67	96	2
TAP	67	144	1
TAP	67	144	4
TAP	67	192	0
TAP	67	192	6
TAP	67	240	2
TAP	67	240	7
TAP	67	288	0
TAP	67	288	6
TAP	67	336	2
TAP	67	336	7
TAP	68	0	3
TAP	68	48	4
TAP	68	96	5
TAP	68	144	3
TAP	68	144	6
TAP	68	192	1
TAP	68	192	7
TAP	68	240	0
TAP	68	240	5
TAP	68	288	1
TAP	68	288	7
TAP	68	336	0
TAP	68	336	5
TAP	69	0	4
TAP	69	48	3
TAP	69	96	2
TAP	69	144	1
BRK	69	192	0
BRK	69	192	7
BRK	69	240	0
BRK	69	240	7
BRK	69	288	1
BRK	69	288	6
TAP	70	0	3
TAP	70	48	4
TAP	70	96	5
TAP	70	144	3
TAP	70	144	6
TAP	70	192	0
TAP	70	192	5
TAP	70	240	2
TAP	70	240	7
TAP	70	288	0
TAP	70	288	5
TAP	70	336	2
TAP	70	336	7
TAP	71	0	4
TAP	71	48	3
TAP	71	96	2
TAP	71	144	1
TAP	71	144	4
TAP	71	192	2
TAP	71	192	7
TAP	71	240	0
TAP	71	240	5
TAP	71	288	2
TAP	71	288	7
TAP	71	336	0
TAP	71	336	5
HLD	72	0	2	48
HLD	72	0	7	48
HLD	72	96	3	48
HLD	72	96	6	48
HLD	72	192	4	48
HLD	72	192	5	48
HLD	72	288	2	48
HLD	72	288	3	48
BRK	73	0	4
BRK	73	0	6
BRK	73	96	1
BRK	73	96	3
BRK	73	192	0
BRK	73	192	7
BRK	73	288	1
BRK	73	288	6
TAP	74	0	7
TAP	74	48	6
HLD	74	96	5	96
TAP	74	192	4
TAP	74	240	3
TAP	74	240	4
TAP	74	288	2
TAP	74	288	3
TAP	75	0	0
TAP	75	48	1
HLD	75	96	2	96
TAP	75	192	3
TAP	75	240	3
TAP	75	240	4
TAP	75	288	4
TAP	75	288	5
TAP	76	0	7
TAP	76	48	6
HLD	76	96	5	96
TAP	76	192	4
TAP	76	240	3
TAP	76	240	4
TAP	76	288	2
TAP	76	288	3
BRK	77	0	1
BRK	77	0	4
BRK	77	192	0
BRK	77	192	7
BRK	77	288	3
BRK	77	288	4
BRK	78	0	1
BRK	78	0	6
TAP	78	96	3
TAP	78	96	4
TAP	78	144	2
TAP	78	192	1
TAP	78	240	0
TAP	78	288	7
TAP	78	336	3
TAP	78	336	6
TAP	79	0	2
TAP	79	0	5
TAP	79	96	3
TAP	79	96	4
TAP	79	144	5
TAP	79	192	6
TAP	79	240	7
TAP	79	288	0
TAP	79	336	1
TAP	79	336	4
TAP	80	0	2
TAP	80	0	5
TAP	80	96	3
TAP	80	96	4
TAP	80	144	2
TAP	80	192	1
TAP	80	240	0
TAP	80	288	7
TAP	80	336	3
TAP	80	336	6
BST	81	0	2
SI_	81	0	2	96	48	0
BST	81	0	5
SI_	81	0	5	96	48	7
BRK	81	192	3
BRK	81	192	4
BRK	81	240	2
BRK	81	240	5
BRK	81	288	1
BRK	81	288	6
BST	82	0	1
SI_	82	0	1	96	48	4
BST	82	0	6
SI_	82	0	6	96	48	3
BRK	82	192	2
BRK	82	192	4
BRK	82	264	3
BRK	82	264	5
BRK	82	336	1
BRK	82	336	6

T_REC_TAP	445
T_REC_BRK	88
T_REC_XTP	0
T_REC_HLD	35
T_REC_XHO	0
T_REC_STR	44
T_REC_BST	4
T_REC_XST	0
T_REC_TTP	0
T_REC_THO	0
T_REC_SLD	48
T_REC_ALL	664
T_NUM_TAP	489
T_NUM_BRK	92
T_NUM_HLD	35
T_NUM_SLD	48
T_NUM_ALL	664
T_JUDGE_TAP	581
T_JUDGE_HLD	80
T_JUDGE_SLD	48
T_JUDGE_ALL	709
TTM_EACHPAIRS	199
TTM_SCR_TAP	244500
TTM_SCR_BRK	239200
TTM_SCR_HLD	35000
TTM_SCR_SLD	72000
TTM_SCR_ALL	590700
TTM_SCR_S	564100
TTM_SCR_SS	581500
TTM_RAT_ACV	10158

