VERSION	0.00.00	1.03.00
FES_MODE	0
BPM_DEF	160.000	160.000	160.000	160.000
MET_DEF	4	4
RESOLUTION	384
CLK_DEF	384
COMPATIBLE_CODE	MA2

BPM	0	0	160.000

STR	2	0	5
SCL	2	0	5	96	192	2
STR	3	0	1
SUR	3	0	1	96	192	6
STR	4	0	7
SSR	4	0	7	96	192	3
TAP	5	0	2
TAP	5	96	2
TAP	5	192	1
TAP	5	192	3
TAP	6	0	5
TAP	6	96	5
TAP	6	192	4
TAP	6	288	4
TAP	7	0	3
TAP	7	96	2
TAP	7	192	1
TAP	7	192	4
TAP	8	0	2
TAP	8	96	2
TAP	8	192	3
TAP	8	288	3
HLD	9	0	3	96
HLD	9	0	4	96
BRK	9	192	2
BRK	9	192	5
BRK	9	288	0
BRK	9	288	7
BRK	10	0	1
BRK	10	0	6
TAP	10	96	7
TAP	10	192	6
TAP	10	288	5
TAP	11	0	4
TAP	11	96	4
TAP	11	192	3
TAP	11	192	5
TAP	12	0	0
TAP	12	96	1
TAP	12	192	2
TAP	12	288	3
BRK	13	0	1
BRK	13	0	4
BRK	13	192	3
BRK	13	192	4
BRK	13	288	2
BRK	13	288	5
BRK	14	0	0
BRK	14	0	7
TAP	14	96	1
TAP	14	192	2
TAP	14	288	3
TAP	15	0	4
TAP	15	0	5
TAP	15	96	4
TAP	15	96	5
TAP	15	192	3
TAP	15	192	6
TAP	16	0	0
TAP	16	0	7
TAP	16	96	6
TAP	16	192	5
TAP	16	288	4
BRK	17	0	3
BRK	17	0	6
TAP	17	192	3
TAP	17	192	4
TAP	17	240	3
TAP	17	240	4
BRK	17	288	3
BRK	17	288	4
HLD	18	0	6	96
TAP	18	96	7
HLD	18	192	0	96
TAP	18	288	7
HLD	19	0	6	96
TAP	19	96	7
TAP	19	192	0
TAP	19	192	5
HLD	20	0	2	96
TAP	20	96	3
HLD	20	192	4	96
TAP	20	288	3
HLD	21	0	2	96
TAP	21	96	3
TAP	21	192	1
TAP	21	192	4
HLD	22	0	6	96
TAP	22	96	7
HLD	22	192	1	96
TAP	22	288	0
HLD	23	0	7	96
TAP	23	96	0
TAP	23	192	1
TAP	23	192	6
TAP	23	288	2
STR	23	288	5
SCR	23	288	5	96	288	2
TAP	25	0	3
TAP	25	0	4
TAP	25	96	2
TAP	25	96	5
TAP	25	192	1
TAP	25	192	6
BRK	25	288	0
BRK	25	288	7
TAP	26	0	6
TAP	26	96	6
TAP	26	192	6
TAP	26	192	7
TAP	27	0	1
TAP	27	96	1
TAP	27	192	0
TAP	27	192	1
TAP	28	0	7
TAP	28	96	7
TAP	28	192	0
TAP	28	288	0
TAP	29	0	0
TAP	29	0	7
TAP	29	96	0
TAP	29	96	7
TAP	29	192	1
TAP	29	192	6
TAP	30	0	2
TAP	30	96	2
TAP	30	192	1
TAP	30	192	3
TAP	31	0	5
TAP	31	96	5
TAP	31	192	4
TAP	31	192	6
TAP	32	0	2
TAP	32	96	3
TAP	32	192	5
TAP	32	288	4
STR	33	0	2
SUL	33	0	2	96	192	4
TAP	34	0	5
TAP	34	96	4
TAP	34	96	5
TAP	34	192	2
TAP	34	288	2
TAP	34	288	3
TAP	35	0	5
TAP	35	96	4
TAP	35	96	5
TAP	35	192	3
TAP	35	192	6
TAP	36	0	2
TAP	36	96	1
TAP	36	96	3
TAP	36	192	5
TAP	36	288	4
TAP	36	288	6
BST	37	0	0
SCR	37	0	0	96	144	3
BST	37	0	7
SCL	37	0	7	96	144	4
TAP	38	0	2
TAP	38	96	2
TAP	38	96	3
TAP	38	192	5
TAP	38	288	4
TAP	38	288	5
TAP	39	0	2
TAP	39	96	2
TAP	39	96	3
TAP	39	192	1
TAP	39	192	4
TAP	40	0	5
TAP	40	96	4
TAP	40	96	6
TAP	40	192	2
TAP	40	288	1
TAP	40	288	3
BST	41	0	2
SXR	41	0	2	96	240	3
BRK	41	0	5
HLD	42	0	5	192
TAP	42	192	4
HLD	43	0	2	192
TAP	43	192	3
HLD	44	0	5	192
TAP	44	192	4
HLD	45	0	3	192
HLD	45	0	4	192
TAP	46	0	2
TAP	46	192	1
TAP	46	192	3
TAP	47	0	5
TAP	47	192	4
TAP	47	192	6
TAP	48	0	2
TAP	48	192	1
TAP	48	192	3
HLD	49	0	3	192
HLD	49	0	4	192
TAP	49	288	2
TAP	49	288	5
TAP	50	0	1
TAP	50	96	2
TAP	50	192	3
TAP	50	288	4
TAP	50	288	5
TAP	51	0	6
TAP	51	96	5
TAP	51	192	3
TAP	51	192	4
TAP	52	0	6
TAP	52	96	5
TAP	52	192	4
TAP	52	288	2
TAP	52	288	3
TAP	53	0	1
TAP	53	96	2
TAP	53	192	3
TAP	53	192	4
TAP	54	0	5
TAP	54	96	6
TAP	54	192	7
TAP	54	288	0
TAP	54	288	1
TAP	55	0	2
TAP	55	96	1
TAP	55	192	0
TAP	55	192	7
TAP	56	0	2
TAP	56	96	1
TAP	56	192	0
TAP	56	288	6
TAP	56	288	7
TAP	57	0	4
TAP	57	0	5
TAP	57	96	2
TAP	57	96	3
TAP	57	192	3
TAP	57	192	4
BRK	57	288	1
BRK	57	288	6
TAP	58	0	3
TAP	58	0	4
TAP	58	96	6
TAP	58	192	3
TAP	58	192	4
TAP	58	288	1
TAP	59	0	3
TAP	59	0	4
TAP	59	96	6
TAP	59	192	3
TAP	59	192	4
TAP	59	288	1
TAP	60	0	4
TAP	60	0	5
TAP	60	96	7
TAP	60	192	2
TAP	60	192	3
TAP	60	288	0
TAP	61	0	3
TAP	61	0	4
TAP	61	96	1
TAP	61	96	6
TAP	61	192	0
TAP	61	192	7
BRK	62	0	3
BRK	62	0	4
TAP	62	96	1
TAP	62	192	3
TAP	62	192	4
TAP	62	288	6
TAP	63	0	2
TAP	63	0	3
TAP	63	96	0
TAP	63	192	4
TAP	63	192	5
TAP	63	288	7
HLD	64	0	1	96
HLD	64	0	3	96
HLD	64	192	4	96
HLD	64	192	6	96
TAP	65	0	0
TAP	65	0	7
TAP	65	96	1
TAP	65	96	6
BRK	65	192	2
BRK	65	192	5
BRK	66	0	3
BRK	66	0	4
TAP	66	96	6
TAP	66	96	7
TAP	66	192	3
TAP	66	192	4
TAP	66	288	0
TAP	66	288	1
TAP	67	0	3
TAP	67	0	4
TAP	67	96	6
TAP	67	96	7
TAP	67	192	3
TAP	67	192	4
TAP	67	288	0
TAP	67	288	1
BRK	68	0	2
BRK	68	0	3
TAP	68	96	0
TAP	68	96	7
TAP	68	192	4
TAP	68	192	5
TAP	68	288	0
TAP	68	288	7
TAP	69	0	2
TAP	69	0	3
TAP	69	96	1
TAP	69	96	4
BRK	69	192	0
BRK	69	192	5
BRK	70	0	3
BRK	70	0	4
TAP	70	96	6
TAP	70	96	7
TAP	70	192	3
TAP	70	192	4
TAP	70	288	0
TAP	70	288	1
TAP	71	0	2
TAP	71	0	3
TAP	71	96	6
TAP	71	96	7
TAP	71	192	4
TAP	71	192	5
TAP	71	288	0
TAP	71	288	1
TAP	72	0	2
TAP	72	0	7
TAP	72	96	3
TAP	72	96	6
TAP	72	192	4
TAP	72	192	5
TAP	72	288	2
TAP	72	288	3
TAP	73	0	1
TAP	73	0	4
TAP	73	96	0
TAP	73	96	5
TAP	73	192	6
TAP	73	192	7
BRK	73	288	0
TAP	74	0	1
TAP	74	96	2
TAP	74	192	3
TAP	74	192	4
TAP	74	288	2
TAP	74	288	5
TAP	75	0	6
TAP	75	96	7
TAP	75	192	0
TAP	75	192	5
TAP	76	0	6
TAP	76	96	5
TAP	76	192	3
TAP	76	192	4
TAP	76	288	2
TAP	76	288	5
BRK	77	0	1
BRK	77	0	6
BRK	77	192	4
BRK	77	192	5
BRK	77	288	2
BRK	77	288	3
BRK	78	0	1
BRK	78	0	4
TAP	78	96	2
TAP	78	96	3
TAP	78	192	5
TAP	78	288	4
TAP	78	288	6
TAP	79	0	2
TAP	79	96	1
TAP	79	96	3
TAP	79	192	0
TAP	79	192	4
TAP	80	0	5
TAP	80	96	6
TAP	80	96	7
TAP	80	192	2
TAP	80	288	0
TAP	80	288	1
BRK	81	0	2
BRK	81	0	7
TAP	81	192	3
TAP	81	192	4
TAP	81	240	3
TAP	81	240	4
BRK	81	288	3
BRK	81	288	4
BRK	82	0	2
BRK	82	0	5
TAP	82	96	1
TAP	82	96	6
BST	82	192	0
SI_	82	192	0	96	96	3
BST	82	192	7
SI_	82	192	7	96	96	4

T_REC_TAP	311
T_REC_BRK	50
T_REC_XTP	0
T_REC_HLD	22
T_REC_XHO	0
T_REC_STR	5
T_REC_BST	5
T_REC_XST	0
T_REC_TTP	0
T_REC_THO	0
T_REC_SLD	10
T_REC_ALL	403
T_NUM_TAP	316
T_NUM_BRK	55
T_NUM_HLD	22
T_NUM_SLD	10
T_NUM_ALL	403
T_JUDGE_TAP	371
T_JUDGE_HLD	58
T_JUDGE_SLD	10
T_JUDGE_ALL	439
TTM_EACHPAIRS	135
TTM_SCR_TAP	158000
TTM_SCR_BRK	143000
TTM_SCR_HLD	22000
TTM_SCR_SLD	15000
TTM_SCR_ALL	338000
TTM_SCR_S	322550
TTM_SCR_SS	332500
TTM_RAT_ACV	10165

