VERSION	0.00.00	1.03.00
FES_MODE	0
BPM_DEF	160.000	160.000	160.000	160.000
MET_DEF	4	4
RESOLUTION	384
CLK_DEF	384
COMPATIBLE_CODE	MA2

BPM	0	0	160.000

TAP	2	0	0
TAP	2	192	0
TAP	3	0	1
TAP	3	192	1
TAP	4	0	2
TAP	4	192	2
TAP	5	0	3
TAP	5	192	3
TAP	5	192	4
TAP	6	0	5
TAP	6	192	4
TAP	7	0	3
TAP	7	192	2
TAP	8	0	1
TAP	8	192	0
TAP	9	0	0
TAP	9	0	7
TAP	9	192	0
TAP	9	288	7
TAP	10	0	0
TAP	10	192	7
TAP	11	0	6
TAP	11	192	6
TAP	11	192	7
TAP	12	0	5
TAP	12	192	5
TAP	13	0	3
TAP	13	0	4
TAP	13	192	3
TAP	13	288	4
TAP	14	0	3
TAP	14	192	3
TAP	15	0	2
TAP	15	192	2
TAP	16	0	1
TAP	16	192	1
TAP	17	0	0
TAP	17	0	7
TAP	17	192	0
TAP	17	192	7
TAP	18	0	1
TAP	18	96	1
TAP	18	192	1
TAP	19	0	2
TAP	19	96	2
TAP	19	192	2
TAP	20	0	3
TAP	20	96	3
TAP	20	192	3
TAP	21	0	4
TAP	21	96	3
TAP	21	192	4
TAP	22	0	5
TAP	22	96	5
TAP	22	192	5
TAP	23	0	6
TAP	23	96	6
TAP	23	192	6
HLD	24	0	7	192
TAP	25	0	0
TAP	25	96	7
TAP	25	192	0
HLD	26	0	6	192
TAP	27	0	5
TAP	27	96	5
TAP	27	192	5
HLD	28	0	4	192
TAP	29	0	3
TAP	29	96	3
TAP	29	192	3
HLD	30	0	2	192
TAP	31	0	1
TAP	31	96	1
TAP	31	192	1
HLD	32	0	0	192
HLD	33	0	0	192
HLD	33	0	7	192
TAP	34	0	6
TAP	34	192	6
TAP	35	0	5
TAP	35	96	4
TAP	35	192	5
TAP	36	0	4
TAP	36	192	4
HLD	37	0	3	192
HLD	37	0	4	192
TAP	38	0	2
TAP	38	192	2
TAP	39	0	1
TAP	39	96	0
TAP	39	192	1
TAP	40	0	0
TAP	40	192	0
HLD	41	0	0	192
HLD	41	0	7	192
STR	42	0	0
SI_	42	0	0	96	288	3
STR	44	0	7
SI_	44	0	7	96	288	4
STR	46	0	0
SI_	46	0	0	96	288	5
STR	48	0	7
SI_	48	0	7	96	288	2
HLD	50	0	1	576
HLD	51	0	0	192
HLD	52	0	2	576
HLD	53	0	3	192
HLD	54	0	5	576
HLD	55	0	4	192
TAP	56	0	6
TAP	56	96	6
TAP	56	192	7
TAP	56	288	7
TAP	57	0	0
TAP	57	96	0
TAP	57	192	0
BRK	58	0	7
TAP	58	96	7
TAP	58	192	7
TAP	59	0	6
TAP	59	0	7
TAP	59	96	6
TAP	59	96	7
TAP	59	192	6
TAP	59	192	7
TAP	60	0	5
TAP	60	96	5
TAP	60	192	5
TAP	61	0	4
TAP	61	0	5
TAP	61	96	4
TAP	61	96	5
TAP	61	192	4
TAP	61	192	5
TAP	62	0	3
TAP	62	96	3
TAP	62	192	3
TAP	63	0	3
TAP	63	0	4
TAP	63	96	3
TAP	63	96	4
TAP	63	192	3
TAP	63	192	4
TAP	64	0	2
TAP	64	96	2
TAP	64	192	2
TAP	65	0	0
TAP	65	0	1
TAP	65	96	0
TAP	65	96	1
TAP	65	192	0
TAP	65	192	1
BRK	66	0	0
TAP	66	96	0
TAP	66	192	1
TAP	66	288	1
TAP	67	0	2
TAP	67	0	3
TAP	67	96	2
TAP	67	96	3
TAP	67	192	2
TAP	67	192	3
TAP	68	0	4
TAP	68	96	4
TAP	68	192	5
TAP	68	288	5
TAP	69	0	6
TAP	69	0	7
TAP	69	96	6
TAP	69	96	7
TAP	69	192	6
TAP	69	192	7
TAP	70	0	7
TAP	70	96	7
TAP	70	192	6
TAP	70	288	6
TAP	71	0	4
TAP	71	0	5
TAP	71	96	4
TAP	71	96	5
TAP	71	192	4
TAP	71	192	5
TAP	72	0	3
TAP	72	96	3
TAP	72	192	2
TAP	72	288	2
TAP	73	0	0
TAP	73	0	1
TAP	73	96	0
TAP	73	96	1
TAP	73	192	0
TAP	73	192	1
TAP	74	0	7
TAP	74	96	7
TAP	74	192	7
TAP	75	0	0
TAP	75	96	0
TAP	75	192	0
TAP	76	0	1
TAP	76	96	1
TAP	76	192	1
TAP	77	0	2
TAP	77	0	3
TAP	77	192	2
TAP	77	192	3
TAP	77	288	2
TAP	77	288	3
TAP	78	0	2
TAP	78	0	3
TAP	78	192	4
TAP	78	192	5
TAP	79	0	4
TAP	79	0	5
TAP	79	96	4
TAP	79	96	5
TAP	79	192	4
TAP	79	192	5
TAP	80	0	6
TAP	80	0	7
TAP	80	96	6
TAP	80	96	7
TAP	80	192	6
TAP	80	192	7
TAP	81	0	0
TAP	81	0	1
BRK	81	192	0
BRK	81	192	1
HLD	82	0	0	336
HLD	82	0	7	336

T_REC_TAP	198
T_REC_BRK	4
T_REC_XTP	0
T_REC_HLD	19
T_REC_XHO	0
T_REC_STR	4
T_REC_BST	0
T_REC_XST	0
T_REC_TTP	0
T_REC_THO	0
T_REC_SLD	4
T_REC_ALL	229
T_NUM_TAP	202
T_NUM_BRK	4
T_NUM_HLD	19
T_NUM_SLD	4
T_NUM_ALL	229
T_JUDGE_TAP	206
T_JUDGE_HLD	106
T_JUDGE_SLD	4
T_JUDGE_ALL	316
TTM_EACHPAIRS	47
TTM_SCR_TAP	101000
TTM_SCR_BRK	10400
TTM_SCR_HLD	19000
TTM_SCR_SLD	6000
TTM_SCR_ALL	136400
TTM_SCR_S	131950
TTM_SCR_SS	136000
TTM_RAT_ACV	10029

