VERSION	0.00.00	1.03.00
FES_MODE	0
BPM_DEF	217.000	217.000	217.000	217.000
MET_DEF	4	4
RESOLUTION	384
CLK_DEF	384
COMPATIBLE_CODE	MA2

BPM	0	0	217.000
MET	0	0	4	4

HLD	2	0	1	144
TAP	2	96	3
HLD	2	144	3	432
TAP	2	240	2
TAP	2	336	2
TAP	3	48	2
TAP	3	144	2
TAP	3	192	2
TAP	3	288	4
TAP	3	288	5
HLD	4	0	6	144
TAP	4	96	4
HLD	4	144	4	432
TAP	4	240	5
TAP	4	336	5
TAP	5	48	5
TAP	5	144	5
TAP	5	192	5
TAP	5	288	1
TAP	5	288	3
HLD	6	0	1	144
TAP	6	96	7
HLD	6	144	7	432
TAP	6	240	0
TAP	6	336	1
TAP	7	48	2
TAP	7	144	3
TAP	7	192	3
TAP	7	288	1
TAP	7	288	5
BRK	8	0	5
BRK	8	0	7
TAP	8	96	2
TAP	8	96	3
STR	8	144	2
SI_	8	144	2	96	48	7
TAP	8	144	3
TAP	8	240	6
TAP	8	336	0
TAP	8	336	5
TAP	9	48	1
TAP	9	96	0
TAP	9	192	6
TAP	9	240	7
TAP	9	288	0
TAP	9	288	5
TAP	10	0	4
TAP	10	0	6
TAP	10	96	0
TAP	10	96	1
TAP	10	144	0
STR	10	144	1
SI_	10	144	1	96	48	4
TAP	10	240	5
TAP	10	336	3
TAP	10	336	6
TAP	11	48	4
TAP	11	96	3
STR	11	144	2
SI_	11	144	2	96	48	7
STR	11	144	5
SI_	11	144	5	96	48	0
TAP	12	0	1
TAP	12	0	3
TAP	12	96	6
TAP	12	96	7
STR	12	144	6
SI_	12	144	6	96	48	3
TAP	12	144	7
TAP	12	240	2
TAP	12	336	1
TAP	12	336	4
TAP	13	48	6
TAP	13	96	7
TAP	13	144	0
TAP	13	144	5
TAP	13	240	1
TAP	13	288	0
TAP	13	336	1
TAP	14	0	6
TAP	14	48	7
TAP	14	96	6
TAP	14	144	2
TAP	14	192	0
TAP	14	240	2
TAP	14	288	5
TAP	14	336	7
TAP	15	0	5
TAP	15	48	3
TAP	15	96	0
TAP	15	144	3
TAP	15	192	4
TAP	15	288	2
TAP	15	288	6
HLD	16	0	5	1536
TAP	16	96	1
TAP	16	192	6
TAP	16	288	0
TAP	17	0	7
STR	17	96	4
SCL	17	96	4	96	192	7
TAP	17	144	4
TAP	18	96	6
TAP	18	192	7
TAP	18	288	0
TAP	19	0	7
TAP	19	48	7
TAP	19	144	4
TAP	19	240	0
HLD	20	0	2	672
TAP	20	96	0
TAP	20	192	7
TAP	20	288	6
TAP	21	0	5
TAP	21	96	6
TAP	21	144	6
TAP	21	240	1
TAP	21	288	1
TAP	22	0	0
TAP	22	0	1
TAP	22	48	0
TAP	22	48	1
TAP	22	144	4
TAP	22	144	6
TAP	22	240	2
TAP	22	240	3
HLD	22	336	1	144
TAP	22	336	4
TAP	23	96	0
TAP	23	192	2
TAP	23	192	7
TAP	23	288	0
TAP	23	288	5
TAP	24	0	4
TAP	24	0	6
TAP	24	96	1
TAP	24	96	3
TAP	24	192	3
TAP	24	192	5
TAP	24	288	1
TAP	24	288	4
TAP	25	0	3
TAP	25	0	7
TAP	25	96	1
TAP	25	96	5
TAP	25	192	4
TAP	25	192	6
TAP	25	288	2
TAP	25	288	3
TAP	26	0	4
TAP	26	0	5
TAP	26	96	1
TAP	26	96	3
TAP	26	192	2
TAP	26	192	6
TAP	26	288	1
TAP	26	288	4
TAP	27	0	2
TAP	27	48	3
TAP	27	144	6
TAP	27	144	7
TAP	27	240	1
TAP	27	240	5
TAP	28	0	0
TAP	28	0	2
TAP	28	96	0
TAP	28	96	5
TAP	28	192	1
TAP	28	192	7
TAP	28	288	0
TAP	28	288	6
TAP	29	0	3
TAP	29	0	7
TAP	29	96	0
TAP	29	96	4
TAP	29	192	0
TAP	29	192	2
TAP	29	288	6
TAP	29	288	7
TAP	30	0	0
TAP	30	0	1
TAP	30	96	5
TAP	30	96	7
TAP	30	192	2
TAP	30	192	6
TAP	30	288	0
STR	30	288	5
SCR	30	288	5	96	96	1
TAP	31	0	3
STR	31	96	2
SCL	31	96	2	96	96	6
TAP	31	192	4
TAP	31	288	5
TAP	32	0	5
TAP	32	48	4
TAP	32	96	6
HLD	32	144	6	96
STR	32	240	7
SCR	32	240	7	96	144	4
SUR	32	240	7	96	144	5
TAP	33	192	7
TAP	33	240	7
TAP	33	288	0
TAP	33	288	6
TAP	34	0	2
TAP	34	48	3
TAP	34	96	1
HLD	34	144	1	96
TAP	34	240	0
TAP	34	336	1
TAP	34	336	7
STR	35	48	0
SI_	35	48	0	96	48	4
TAP	35	48	6
TAP	35	96	1
TAP	35	144	0
TAP	35	144	2
TAP	35	240	3
TAP	35	240	5
TAP	35	288	3
TAP	35	288	5
TAP	36	0	2
TAP	36	48	3
TAP	36	96	1
HLD	36	144	1	96
STR	36	240	0
SCL	36	240	0	96	144	3
SUL	36	240	0	96	144	2
TAP	37	192	1
TAP	37	192	6
STR	37	288	7
SI_	37	288	7	96	48	3
TAP	37	336	7
TAP	38	0	1
STR	38	96	0
SI_	38	96	0	96	48	4
TAP	38	192	7
STR	38	288	6
SI_	38	288	6	96	48	3
TAP	39	0	7
STR	39	96	1
SI_	39	96	1	96	48	4
TAP	39	192	0
TAP	39	288	0
TAP	39	288	7
HLD	40	0	1	240
TAP	40	96	0
TAP	40	144	0
STR	40	240	2
SXL	40	240	2	96	240	6
TAP	40	336	1
TAP	41	48	0
TAP	41	96	0
TAP	41	192	7
TAP	41	288	7
TAP	42	0	0
HLD	42	0	6	240
TAP	42	96	7
TAP	42	144	7
STR	42	240	5
SXR	42	240	5	96	240	1
TAP	42	336	6
TAP	43	48	7
TAP	43	96	7
TAP	43	192	0
TAP	43	288	0
HLD	44	0	3	240
TAP	44	0	5
TAP	44	96	4
TAP	44	144	4
STR	44	240	2
SXL	44	240	2	96	240	6
TAP	44	336	0
TAP	45	48	7
STR	45	96	7
SCR	45	96	7	96	96	2
TAP	46	48	3
TAP	46	48	6
TAP	46	96	3
TAP	46	96	6
TAP	46	192	1
TAP	46	192	4
TAP	46	240	1
TAP	46	240	4
TAP	46	336	0
TAP	46	336	7
TAP	47	48	3
TAP	47	48	4
TAP	47	96	2
TAP	47	96	5
TAP	47	192	0
TAP	47	192	7
HLD	47	240	1	48
HLD	47	240	6	48
BRK	48	0	0
BRK	48	0	7
BRK	48	336	0
BST	48	336	6
SI_	48	336	6	96	48	3
STR	49	48	0
SI_	49	48	0	96	48	4
TAP	49	96	0
STR	49	144	5
SI_	49	144	5	96	48	2
TAP	49	192	5
STR	49	240	1
SI_	49	240	1	96	48	6
TAP	49	288	1
TAP	49	336	7
TAP	50	0	7
TAP	50	96	2
TAP	50	96	3
TAP	50	144	1
TAP	50	144	4
TAP	50	240	0
TAP	50	240	7
STR	50	336	1
SI_	50	336	1	96	48	4
TAP	50	336	6
STR	51	48	7
SI_	51	48	7	96	48	3
TAP	51	96	7
STR	51	144	2
SI_	51	144	2	96	48	5
TAP	51	192	2
STR	51	240	6
SI_	51	240	6	96	48	1
TAP	51	288	6
TAP	51	336	0
TAP	52	0	0
TAP	52	96	4
TAP	52	144	3
TAP	52	144	5
TAP	52	240	0
TAP	52	240	7
TAP	52	336	3
TAP	52	336	6
TAP	53	0	5
TAP	53	48	3
TAP	53	96	4
TAP	53	144	2
TAP	53	192	1
TAP	53	192	3
TAP	53	288	3
TAP	53	288	6
TAP	54	0	0
STR	54	0	5
SI_	54	0	5	96	48	0
TAP	54	96	3
STR	54	144	3
SI_	54	144	3	96	48	0
STR	54	240	4
SCR	54	240	4	96	144	3
TAP	54	336	2
TAP	55	192	0
TAP	55	192	1
TAP	55	288	1
TAP	55	288	4
HLD	56	0	4	96
TAP	56	0	5
HLD	56	96	6	96
TAP	56	192	7
TAP	56	240	0
TAP	56	240	5
BST	56	336	1
SI_	56	336	1	96	48	4
BRK	56	336	5
STR	57	48	7
SI_	57	48	7	96	48	3
TAP	57	96	7
STR	57	144	2
SI_	57	144	2	96	48	5
TAP	57	192	2
STR	57	240	6
SI_	57	240	6	96	48	1
TAP	57	288	6
TAP	57	336	0
TAP	58	0	0
TAP	58	96	4
TAP	58	96	5
TAP	58	144	3
TAP	58	144	6
TAP	58	240	0
TAP	58	240	7
TAP	58	336	1
STR	58	336	6
SI_	58	336	6	96	48	3
STR	59	48	0
SI_	59	48	0	96	48	4
TAP	59	96	0
STR	59	144	5
SI_	59	144	5	96	48	2
TAP	59	192	5
TAP	59	240	1
TAP	59	288	1
TAP	60	0	2
TAP	60	0	7
STR	60	48	0
SI_	60	48	0	96	48	4
STR	60	48	1
SI_	60	48	1	96	48	5
TAP	60	144	0
TAP	60	144	1
TAP	60	240	3
TAP	60	240	6
TAP	60	288	3
TAP	60	288	6
STR	61	0	1
SCR	61	0	1	96	48	4
TAP	61	96	7
STR	61	144	7
SCL	61	144	7	96	48	4
TAP	61	240	0
TAP	61	288	0
STR	62	0	6
SCL	62	0	6	96	48	3
TAP	62	96	0
STR	62	144	0
SCR	62	144	0	96	48	3
TAP	62	240	7
TAP	62	288	7
STR	63	0	1
SI_	63	0	1	96	48	4
TAP	63	96	7
STR	63	144	6
SI_	63	144	6	96	48	3
TAP	63	240	0
STR	63	288	1
SCL	63	288	1	96	120	5
SCR	63	288	1	96	120	5
TAP	64	192	2
TAP	64	192	6
STR	64	288	4
SCR	64	288	4	96	72	0
TAP	65	0	2
STR	65	96	4
SUR	65	96	4	96	72	1
TAP	65	192	6
STR	65	288	4
SCR	65	288	4	96	72	0
TAP	66	0	2
STR	66	96	4
SUR	66	96	4	96	72	1
TAP	66	192	6
STR	66	240	6
SCR	66	240	6	96	192	5
SUR	66	240	6	96	192	5
TAP	67	192	2
TAP	67	192	7
TAP	67	288	1
TAP	67	288	4
TAP	68	0	3
TAP	68	0	6
TAP	68	96	2
TAP	68	96	3
TAP	68	144	1
TAP	68	144	4
TAP	68	240	3
TAP	68	240	6
STR	68	288	3
SCL	68	288	3	96	72	7
TAP	68	288	6
TAP	69	0	5
STR	69	96	3
SUL	69	96	3	96	72	6
TAP	69	192	1
STR	69	288	3
SCL	69	288	3	96	72	7
TAP	70	0	5
STR	70	96	3
SUL	70	96	3	96	72	6
TAP	70	192	1
STR	70	240	1
SCL	70	240	1	96	192	2
SUL	70	240	1	96	192	2
TAP	71	192	4
TAP	71	192	5
TAP	71	288	3
TAP	71	288	6
TAP	72	0	2
HLD	72	0	3	96
HLD	72	96	1	96
TAP	72	192	0
TAP	72	240	2
TAP	72	240	7
TAP	72	288	2
STR	72	288	7
SCL	72	288	7	96	72	3
TAP	73	0	2
STR	73	96	7
SUR	73	96	7	96	72	3
TAP	73	192	5
STR	73	288	7
SUL	73	288	7	96	72	3
TAP	74	0	1
STR	74	96	0
SCR	74	96	0	96	72	4
TAP	74	192	6
STR	74	288	0
SCL	74	288	0	96	96	4
TAP	75	0	2
STR	75	96	0
SUR	75	96	0	96	72	4
TAP	75	192	6
STR	75	288	0
SXL	75	288	0	96	192	4
SXR	75	288	0	96	192	4
TAP	76	288	3
TAP	76	288	5
STR	77	0	1
SCR	77	0	1	96	48	4
TAP	77	0	6
TAP	77	96	7
STR	77	144	7
SCL	77	144	7	96	48	4
TAP	77	240	0
TAP	77	288	0
STR	78	0	2
SCL	78	0	2	96	48	7
TAP	78	0	5
TAP	78	96	4
STR	78	144	4
SCR	78	144	4	96	48	7
TAP	78	240	3
TAP	78	288	3
TAP	79	0	0
TAP	79	0	2
TAP	79	96	5
TAP	79	96	7
TAP	79	192	1
TAP	79	192	3
TAP	79	288	4
TAP	79	288	6
TAP	80	0	3
TAP	80	48	2
TAP	80	96	5
TAP	80	144	6
TAP	80	192	2
TAP	80	192	7
TAP	80	288	0
STR	80	288	1
SCR	80	288	1	96	72	4
TAP	81	0	5
TAP	81	96	7
TAP	81	192	0
TAP	81	192	1
STR	81	240	0
SUR	81	240	0	96	144	5
STR	81	240	1
SCR	81	240	1	96	144	5
TAP	82	192	1
TAP	82	192	6
TAP	82	288	0
HLD	82	288	7	96
HLD	83	0	5	96
HLD	83	96	3	96
TAP	83	192	1
STR	83	240	1
SCL	83	240	1	96	144	5
SUL	83	240	1	96	144	4
TAP	84	192	3
TAP	84	192	6
STR	84	288	6
SCL	84	288	6	96	72	3
TAP	84	288	7
TAP	85	0	2
TAP	85	96	0
TAP	85	192	6
TAP	85	192	7
STR	85	240	6
SCL	85	240	6	96	144	2
STR	85	240	7
SUL	85	240	7	96	144	2
TAP	86	192	1
TAP	86	192	6
HLD	86	288	0	96
TAP	86	288	7
HLD	87	0	2	96
HLD	87	96	4	96
TAP	87	192	6
STR	87	240	6
SCR	87	240	6	96	144	2
SUR	87	240	6	96	144	3
TAP	88	192	1
TAP	88	192	4
TAP	88	288	0
STR	88	288	1
SCR	88	288	1	96	72	4
TAP	89	0	5
TAP	89	96	7
TAP	89	192	0
TAP	89	192	1
STR	89	240	0
SUR	89	240	0	96	144	7
STR	89	240	1
SCR	89	240	1	96	144	7
TAP	90	192	0
HLD	90	288	5	96
TAP	90	288	7
HLD	91	0	3	96
TAP	91	96	1
TAP	91	144	1
STR	91	240	0
SXR	91	240	0	96	240	5
STR	91	240	1
SXL	91	240	1	96	240	4
TAP	92	288	3
TAP	92	288	6
STR	93	0	5
SCR	93	0	5	96	96	0
TAP	93	96	2
STR	93	192	3
SUL	93	192	3	96	96	6
TAP	93	288	5
STR	94	0	4
SUR	94	0	4	96	96	1
TAP	94	96	3
STR	94	192	2
SCL	94	192	2	96	96	7
TAP	94	288	4
HLD	95	0	5	96
TAP	95	96	4
HLD	95	192	2	96
TAP	95	288	3
HLD	96	0	6	96
TAP	96	96	5
HLD	96	192	0	96
TAP	96	288	1
BRK	97	0	7
TAP	99	0	0
STR	99	0	2
SI_	99	0	2	96	48	7
TAP	99	96	6
STR	99	144	6
SI_	99	144	6	96	48	3
TAP	99	240	2
TAP	99	336	1
TAP	99	336	4
TAP	100	48	6
TAP	100	96	7
TAP	100	192	1
TAP	100	240	0
TAP	100	288	2
TAP	100	288	7
STR	101	0	1
SI_	101	0	1	96	48	4
TAP	101	0	3
TAP	101	96	5
STR	101	144	5
SI_	101	144	5	96	48	0
TAP	101	240	1
TAP	101	336	2
TAP	101	336	7
TAP	102	48	3
TAP	102	96	4
STR	102	144	2
SI_	102	144	2	96	48	7
STR	102	144	5
SI_	102	144	5	96	48	0
TAP	103	0	4
STR	103	0	6
SI_	103	0	6	96	48	3
TAP	103	96	2
STR	103	144	2
SI_	103	144	2	96	48	7
TAP	103	240	6
TAP	103	336	0
TAP	103	336	5
TAP	104	48	0
TAP	104	96	7
TAP	104	144	1
TAP	104	144	6
TAP	104	240	2
TAP	104	288	3
TAP	104	336	2
TAP	105	0	5
TAP	105	48	4
TAP	105	96	5
TAP	105	144	1
TAP	105	192	3
TAP	105	240	1
TAP	105	288	6
TAP	105	336	4
TAP	106	0	6
TAP	106	48	0
TAP	106	96	3
TAP	106	144	0
TAP	106	192	7
TAP	106	240	3
TAP	106	288	1
TAP	106	288	5
TAP	107	0	2
TAP	107	48	3
TAP	107	96	2
TAP	107	144	6
TAP	107	192	4
TAP	107	240	6
TAP	107	288	1
TAP	107	336	3
TAP	108	0	1
TAP	108	48	7
TAP	108	96	4
TAP	108	144	7
TAP	108	192	0
TAP	108	240	4
TAP	108	288	2
TAP	108	288	6
STR	109	0	5
SI_	109	0	5	96	48	3
TAP	109	48	3
TAP	109	96	5
STR	109	144	1
SI_	109	144	1	96	48	4
TAP	109	192	4
TAP	109	240	1
STR	109	288	6
SI_	109	288	6	96	48	3
TAP	109	336	3
TAP	110	0	6
STR	110	48	0
SI_	110	48	0	96	48	4
TAP	110	96	4
TAP	110	144	0
TAP	110	192	7
TAP	110	240	3
TAP	110	288	5
TAP	110	336	5
STR	111	0	0
SI_	111	0	0	96	48	4
TAP	111	48	4
TAP	111	96	0
STR	111	144	7
SI_	111	144	7	96	48	3
TAP	111	192	3
TAP	111	240	7
STR	111	288	1
SI_	111	288	1	96	48	5
TAP	111	336	4
TAP	112	0	1
STR	112	48	6
SI_	112	48	6	96	48	2
TAP	112	96	3
TAP	112	144	6
TAP	112	192	0
TAP	112	240	4
TAP	112	288	2
TAP	112	288	6
TAP	112	336	0
TAP	112	336	4
BST	113	96	0
SCR	113	96	0	96	480	7
BRK	113	96	7

T_REC_TAP	501
T_REC_BRK	8
T_REC_XTP	0
T_REC_HLD	33
T_REC_XHO	0
T_REC_STR	98
T_REC_BST	3
T_REC_XST	0
T_REC_TTP	0
T_REC_THO	0
T_REC_SLD	109
T_REC_ALL	752
T_NUM_TAP	599
T_NUM_BRK	11
T_NUM_HLD	33
T_NUM_SLD	109
T_NUM_ALL	752
T_JUDGE_TAP	610
T_JUDGE_HLD	140
T_JUDGE_SLD	109
T_JUDGE_ALL	859
TTM_EACHPAIRS	150
TTM_SCR_TAP	299500
TTM_SCR_BRK	28600
TTM_SCR_HLD	33000
TTM_SCR_SLD	163500
TTM_SCR_ALL	524600
TTM_SCR_S	507800
TTM_SCR_SS	523500
TTM_RAT_ACV	10021

