VERSION	0.00.00	1.03.00
FES_MODE	0
BPM_DEF	217.000	217.000	217.000	217.000
MET_DEF	4	4
RESOLUTION	384
CLK_DEF	384
COMPATIBLE_CODE	MA2

BPM	0	0	217.000

STR	2	0	1
SI_	2	0	1	96	480	4
STR	4	0	7
SI_	4	0	7	96	480	3
STR	6	0	0
SCR	6	0	0	96	480	7
TAP	8	0	4
HLD	8	0	5	336
TAP	8	96	3
TAP	8	144	3
TAP	8	240	4
STR	8	336	4
SI_	8	336	4	96	144	0
HLD	10	0	2	336
TAP	10	0	3
TAP	10	96	4
TAP	10	144	4
TAP	10	240	3
STR	10	336	3
SI_	10	336	3	96	144	7
TAP	12	0	4
HLD	12	0	5	336
TAP	12	96	3
TAP	12	144	3
TAP	12	240	4
STR	12	336	4
SF_	12	336	4	96	144	0
TAP	14	0	7
TAP	14	96	7
TAP	14	192	6
TAP	14	288	6
TAP	15	0	5
TAP	15	96	5
TAP	15	192	4
TAP	15	288	4
HLD	16	0	3	672
TAP	16	0	4
TAP	16	96	4
TAP	16	192	5
TAP	16	288	5
TAP	17	0	4
TAP	17	96	4
TAP	17	192	5
TAP	17	288	5
TAP	18	0	4
HLD	18	0	5	672
TAP	18	96	4
TAP	18	192	3
TAP	18	288	3
TAP	19	0	4
TAP	19	96	4
TAP	19	192	3
TAP	19	288	3
HLD	20	0	2	672
TAP	20	0	3
TAP	20	96	3
TAP	20	192	4
TAP	20	288	4
TAP	21	0	3
TAP	21	96	3
TAP	21	192	4
TAP	21	288	4
TAP	22	0	3
TAP	22	0	5
TAP	22	96	5
TAP	22	96	6
TAP	22	192	2
TAP	22	192	4
TAP	22	288	1
TAP	22	288	2
TAP	23	0	2
TAP	23	96	3
TAP	23	192	4
BRK	23	288	5
TAP	24	0	5
TAP	24	96	4
TAP	24	96	5
TAP	24	192	5
TAP	24	288	3
TAP	24	288	5
TAP	25	0	2
TAP	25	96	2
TAP	25	96	3
TAP	25	192	2
TAP	25	288	2
TAP	25	288	4
TAP	26	0	6
TAP	26	96	4
TAP	26	96	6
TAP	26	192	6
TAP	26	288	3
TAP	26	288	6
TAP	27	0	1
TAP	27	96	1
TAP	27	96	3
TAP	27	192	1
TAP	27	288	1
TAP	27	288	4
TAP	28	0	6
TAP	28	96	6
TAP	28	96	7
TAP	28	192	6
TAP	28	288	0
TAP	28	288	6
TAP	29	0	1
TAP	29	96	0
TAP	29	96	1
TAP	29	192	1
TAP	29	288	1
TAP	29	288	7
TAP	30	0	0
TAP	30	0	1
TAP	30	96	2
TAP	30	96	3
TAP	30	192	4
TAP	30	192	5
TAP	30	288	6
TAP	30	288	7
HLD	31	0	0	96
HLD	31	0	5	96
HLD	31	192	2	96
HLD	31	192	7	96
STR	32	0	2
SCL	32	0	2	96	240	5
STR	32	0	3
SUL	32	0	3	96	240	4
TAP	33	96	3
TAP	33	192	4
TAP	33	288	2
TAP	33	288	5
STR	34	0	4
SUR	34	0	4	96	240	3
STR	34	0	5
SCR	34	0	5	96	240	2
TAP	35	96	4
TAP	35	192	3
TAP	35	288	2
TAP	35	288	5
STR	36	0	2
SCL	36	0	2	96	240	5
STR	36	0	3
SUL	36	0	3	96	240	4
TAP	37	96	3
TAP	37	192	4
TAP	37	288	2
TAP	37	288	5
TAP	38	0	4
TAP	38	0	5
TAP	38	96	4
TAP	38	96	5
TAP	38	192	2
TAP	38	192	7
TAP	38	288	2
TAP	38	288	7
TAP	39	0	2
TAP	39	0	3
TAP	39	96	2
TAP	39	96	3
TAP	39	192	0
TAP	39	192	5
TAP	39	288	0
TAP	39	288	5
HLD	40	0	6	192
HLD	40	192	4	192
TAP	41	0	3
TAP	41	96	2
TAP	41	192	0
TAP	41	192	1
HLD	42	0	1	192
HLD	42	192	3	192
TAP	43	0	4
TAP	43	96	5
TAP	43	192	6
TAP	43	192	7
TAP	44	0	7
TAP	44	96	6
TAP	44	192	5
TAP	44	288	4
TAP	45	0	3
TAP	45	96	2
TAP	45	192	1
TAP	45	288	0
STR	46	0	0
SXL	46	0	0	96	480	3
STR	46	0	4
SXL	46	0	4	96	480	7
BRK	48	0	1
BRK	48	0	6
TAP	49	0	1
TAP	49	0	3
TAP	49	96	7
TAP	49	192	4
TAP	49	192	6
TAP	49	288	0
TAP	50	0	2
TAP	50	0	3
TAP	50	96	4
TAP	50	96	5
TAP	50	192	2
TAP	50	192	3
TAP	50	288	1
TAP	50	288	4
TAP	51	0	4
TAP	51	0	6
TAP	51	96	0
TAP	51	192	1
TAP	51	192	3
TAP	51	288	7
TAP	52	0	4
TAP	52	0	5
TAP	52	96	2
TAP	52	96	3
TAP	52	192	4
TAP	52	192	5
TAP	52	288	3
TAP	52	288	6
STR	53	0	1
SI_	53	0	1	96	48	4
TAP	53	0	7
STR	53	192	6
SI_	53	192	6	96	48	3
STR	54	0	0
SI_	54	0	0	96	48	4
STR	54	192	7
SI_	54	192	7	96	48	3
STR	55	0	0
SCR	55	0	0	96	288	7
TAP	56	192	0
TAP	56	240	7
TAP	56	288	0
TAP	57	0	4
TAP	57	0	6
TAP	57	96	0
TAP	57	192	1
TAP	57	192	3
TAP	57	288	7
TAP	58	0	4
TAP	58	0	5
TAP	58	96	2
TAP	58	96	3
TAP	58	192	4
TAP	58	192	5
TAP	58	288	3
TAP	58	288	6
TAP	59	0	1
TAP	59	0	3
TAP	59	96	7
TAP	59	192	4
TAP	59	192	6
TAP	59	288	0
TAP	60	0	2
TAP	60	0	3
TAP	60	96	4
TAP	60	96	5
TAP	60	192	2
TAP	60	192	3
TAP	60	288	1
TAP	60	288	4
TAP	61	0	0
STR	61	0	6
SCL	61	0	6	96	96	3
STR	61	192	1
SUR	61	192	1	96	96	5
TAP	62	0	7
TAP	62	96	6
TAP	62	192	0
TAP	62	192	5
STR	63	0	1
SCR	63	0	1	96	96	4
TAP	63	0	7
STR	63	192	6
SUL	63	192	6	96	96	2
TAP	64	0	0
TAP	64	96	1
TAP	64	192	2
TAP	64	192	7
HLD	65	0	5	96
TAP	65	96	4
HLD	65	192	2	96
TAP	65	288	3
HLD	66	0	5	96
TAP	66	96	6
HLD	66	192	2	96
TAP	66	288	1
STR	67	0	1
SCL	67	0	1	96	288	2
TAP	68	192	4
TAP	68	240	3
TAP	68	288	4
HLD	69	0	2	96
TAP	69	96	3
HLD	69	192	5	96
TAP	69	288	4
HLD	70	0	2	96
TAP	70	96	1
HLD	70	192	5	96
TAP	70	288	6
STR	71	0	6
SCR	71	0	6	96	288	5
TAP	72	192	0
TAP	72	240	7
TAP	72	288	0
HLD	73	0	6	96
TAP	73	96	7
HLD	73	192	1	96
TAP	73	288	0
HLD	74	0	6	96
TAP	74	96	5
HLD	74	192	1	96
TAP	74	288	2
STR	75	0	2
SCR	75	0	2	96	288	1
TAP	76	192	0
TAP	76	192	7
TAP	77	0	2
TAP	77	0	3
TAP	77	96	4
TAP	77	192	5
TAP	77	192	7
TAP	77	288	6
TAP	78	0	0
TAP	78	0	7
TAP	78	96	0
TAP	78	96	7
TAP	78	192	1
TAP	78	192	6
TAP	79	0	4
TAP	79	0	5
TAP	79	96	3
TAP	79	192	0
TAP	79	192	2
TAP	79	288	1
TAP	80	0	0
TAP	80	0	7
TAP	80	96	0
TAP	80	96	7
TAP	80	192	1
TAP	80	192	6
TAP	81	0	2
TAP	81	48	3
TAP	81	96	2
TAP	81	192	5
TAP	81	240	4
TAP	81	288	5
TAP	82	0	1
TAP	82	48	0
TAP	82	96	1
TAP	82	192	6
TAP	82	240	7
TAP	82	288	6
STR	83	0	0
SCR	83	0	0	96	96	3
STR	83	192	4
SCR	83	192	4	96	96	7
STR	84	0	0
SF_	84	0	0	96	96	4
TAP	85	0	5
TAP	85	48	4
TAP	85	96	5
TAP	85	192	2
TAP	85	240	3
TAP	85	288	2
TAP	86	0	6
TAP	86	48	7
TAP	86	96	6
TAP	86	192	1
TAP	86	240	0
TAP	86	288	1
STR	87	0	7
SCL	87	0	7	96	96	4
STR	87	192	3
SCL	87	192	3	96	96	0
STR	88	0	7
SF_	88	0	7	96	96	3
TAP	89	0	1
TAP	89	48	0
TAP	89	96	1
TAP	89	192	6
TAP	89	240	7
TAP	89	288	6
TAP	90	0	2
TAP	90	48	3
TAP	90	96	2
TAP	90	192	5
TAP	90	240	4
TAP	90	288	5
TAP	91	0	2
TAP	91	0	6
TAP	91	96	1
TAP	91	96	5
TAP	91	192	0
TAP	91	192	4
TAP	91	288	1
TAP	91	288	5
STR	92	0	2
SCL	92	0	2	96	96	7
STR	92	0	6
SCL	92	0	6	96	96	3
HLD	93	0	4	192
TAP	93	0	5
TAP	93	192	3
TAP	94	0	2
TAP	94	96	3
TAP	94	192	1
TAP	94	192	4
HLD	95	0	0	192
HLD	95	192	6	192
HLD	96	0	4	192
TAP	96	192	3
BRK	97	0	1
BRK	97	0	6
TAP	99	0	0
HLD	99	0	1	144
TAP	99	96	2
TAP	99	144	2
TAP	99	240	2
TAP	99	240	3
STR	99	336	4
SCL	99	336	4	96	144	1
STR	99	336	5
SCR	99	336	5	96	144	0
HLD	101	0	6	144
TAP	101	0	7
TAP	101	96	5
TAP	101	144	5
TAP	101	240	4
TAP	101	240	5
STR	101	336	2
SCL	101	336	2	96	144	7
STR	101	336	3
SCR	101	336	3	96	144	6
TAP	103	0	0
HLD	103	0	1	144
TAP	103	96	2
TAP	103	144	2
TAP	103	240	2
TAP	103	240	3
STR	103	336	4
SXR	103	336	4	96	240	1
STR	103	336	5
SXL	103	336	5	96	240	0
HLD	105	0	6	96
HLD	105	0	7	96
HLD	105	144	6	96
HLD	105	144	7	96
HLD	105	288	0	96
HLD	105	288	5	96
HLD	106	48	0	96
HLD	106	48	5	96
TAP	106	192	6
TAP	106	192	7
TAP	106	288	0
TAP	106	288	5
HLD	107	0	0	96
HLD	107	0	1	96
HLD	107	144	0	96
HLD	107	144	1	96
HLD	107	288	2	96
HLD	107	288	7	96
HLD	108	48	2	96
HLD	108	48	7	96
TAP	108	192	0
TAP	108	192	1
TAP	108	288	2
TAP	108	288	7
STR	109	0	0
SI_	109	0	0	96	48	4
TAP	109	0	6
STR	109	192	7
SI_	109	192	7	96	48	3
STR	110	0	1
SI_	110	0	1	96	48	4
STR	110	192	6
SI_	110	192	6	96	48	3
STR	111	0	0
SI_	111	0	0	96	48	4
STR	111	192	7
SI_	111	192	7	96	48	3
STR	112	0	2
SI_	112	0	2	96	48	7
STR	112	192	5
SI_	112	192	5	96	48	0
TAP	113	0	3
STR	113	96	2
SXR	113	96	2	96	480	1
STR	113	96	6
SXR	113	96	6	96	480	5

T_REC_TAP	333
T_REC_BRK	5
T_REC_XTP	0
T_REC_HLD	49
T_REC_XHO	0
T_REC_STR	50
T_REC_BST	0
T_REC_XST	0
T_REC_TTP	0
T_REC_THO	0
T_REC_SLD	50
T_REC_ALL	487
T_NUM_TAP	383
T_NUM_BRK	5
T_NUM_HLD	49
T_NUM_SLD	50
T_NUM_ALL	487
T_JUDGE_TAP	388
T_JUDGE_HLD	168
T_JUDGE_SLD	50
T_JUDGE_ALL	606
TTM_EACHPAIRS	117
TTM_SCR_TAP	191500
TTM_SCR_BRK	13000
TTM_SCR_HLD	49000
TTM_SCR_SLD	75000
TTM_SCR_ALL	328500
TTM_SCR_S	318200
TTM_SCR_SS	328000
TTM_RAT_ACV	10015

