VERSION	0.00.00	1.03.00
FES_MODE	0
BPM_DEF	217.000	217.000	217.000	217.000
MET_DEF	4	4
RESOLUTION	384
CLK_DEF	384
COMPATIBLE_CODE	MA2

BPM	0	0	217.000

HLD	2	0	5	384
TAP	3	0	4
TAP	3	192	3
TAP	3	192	4
HLD	4	0	2	384
TAP	5	0	3
TAP	5	192	3
TAP	5	192	4
STR	6	0	3
SI_	6	0	3	96	288	0
STR	6	0	4
SI_	6	0	4	96	288	7
TAP	7	192	1
TAP	7	192	6
TAP	8	0	2
TAP	8	96	2
TAP	8	192	2
TAP	9	0	4
TAP	9	96	4
TAP	9	192	3
TAP	10	0	5
TAP	10	96	5
TAP	10	192	5
TAP	11	0	3
TAP	11	96	3
TAP	11	192	4
TAP	12	0	1
TAP	12	96	1
TAP	12	192	1
TAP	13	0	7
TAP	13	96	7
TAP	13	192	0
TAP	14	0	6
TAP	14	96	6
TAP	14	192	7
TAP	14	288	7
TAP	15	0	0
TAP	15	96	0
TAP	15	192	0
TAP	15	192	7
HLD	16	0	5	192
TAP	16	192	4
TAP	17	0	3
TAP	17	96	4
TAP	17	192	3
HLD	18	0	2	192
TAP	18	192	3
TAP	19	0	4
TAP	19	96	3
TAP	19	192	4
HLD	20	0	6	192
TAP	20	192	7
TAP	21	0	0
TAP	21	96	7
TAP	21	192	0
TAP	22	0	0
TAP	22	96	0
TAP	22	192	7
TAP	22	288	7
TAP	23	0	0
TAP	23	96	7
TAP	23	192	1
TAP	23	192	6
TAP	24	0	2
TAP	24	96	2
TAP	24	192	3
TAP	25	0	5
TAP	25	96	5
TAP	25	192	4
TAP	26	0	2
TAP	26	96	2
TAP	26	192	3
TAP	27	0	4
TAP	27	96	3
TAP	27	192	3
TAP	27	192	4
TAP	28	0	1
TAP	28	96	1
TAP	28	192	0
TAP	29	0	6
TAP	29	96	6
TAP	29	192	7
TAP	30	0	0
TAP	30	96	0
TAP	30	192	7
TAP	30	288	7
HLD	31	0	0	96
HLD	31	0	7	96
BRK	31	192	1
BRK	31	192	6
TAP	32	0	2
TAP	32	96	2
TAP	32	192	3
STR	32	288	3
SCL	32	288	3	96	240	0
TAP	34	0	6
TAP	34	96	6
TAP	34	192	7
TAP	35	0	1
TAP	35	96	1
TAP	35	192	0
TAP	36	0	6
TAP	36	96	6
TAP	36	192	7
STR	36	288	7
SCL	36	288	7	96	240	4
HLD	38	0	2	96
HLD	38	0	3	96
HLD	38	192	4	96
HLD	38	192	5	96
HLD	39	0	3	96
HLD	39	0	4	96
TAP	39	192	2
TAP	39	192	5
HLD	40	0	5	192
HLD	40	192	4	192
TAP	41	0	5
TAP	41	192	3
TAP	41	192	6
HLD	42	0	2	192
HLD	42	192	3	192
TAP	43	0	2
TAP	43	192	1
TAP	43	192	4
HLD	44	0	6	192
TAP	44	192	7
HLD	45	0	1	192
TAP	45	192	0
STR	46	0	0
SXL	46	0	0	96	480	3
STR	46	0	7
SXR	46	0	7	96	480	4
TAP	48	0	3
TAP	48	0	4
TAP	49	0	5
TAP	49	96	5
TAP	49	192	4
TAP	49	192	5
TAP	50	0	2
TAP	50	96	2
TAP	50	192	2
TAP	50	192	3
TAP	51	0	5
TAP	51	96	5
TAP	51	192	4
TAP	51	288	4
TAP	52	0	3
TAP	52	96	3
TAP	52	192	2
TAP	52	192	4
TAP	53	0	1
TAP	53	96	1
TAP	53	192	0
TAP	53	192	1
TAP	54	0	6
TAP	54	96	6
TAP	54	192	6
TAP	54	192	7
STR	55	0	0
SI_	55	0	0	96	144	3
STR	55	0	7
SI_	55	0	7	96	144	4
TAP	56	0	2
TAP	56	0	5
TAP	56	96	1
TAP	56	96	6
BRK	56	192	0
BRK	56	192	7
TAP	57	0	1
TAP	57	96	1
TAP	57	192	0
TAP	57	192	1
TAP	58	0	6
TAP	58	96	6
TAP	58	192	6
TAP	58	192	7
TAP	59	0	0
TAP	59	96	0
TAP	59	192	7
TAP	59	288	7
TAP	60	0	0
TAP	60	96	0
TAP	60	192	1
TAP	60	192	7
HLD	61	0	6	192
HLD	61	192	4	192
STR	62	0	5
SI_	62	0	5	96	144	0
HLD	63	0	1	192
HLD	63	192	3	192
STR	64	0	2
SI_	64	0	2	96	144	7
HLD	65	0	5	192
TAP	65	192	4
TAP	66	0	3
TAP	66	0	4
TAP	66	96	3
TAP	66	96	4
TAP	66	192	3
TAP	66	192	4
HLD	67	0	1	192
TAP	67	192	0
TAP	68	0	0
TAP	68	0	7
TAP	68	96	0
TAP	68	96	7
TAP	68	192	1
TAP	68	192	6
HLD	69	0	2	192
TAP	69	192	3
TAP	70	0	3
TAP	70	0	4
TAP	70	96	3
TAP	70	96	4
TAP	70	192	2
TAP	70	192	5
HLD	71	0	6	192
TAP	71	192	7
TAP	72	0	0
TAP	72	0	7
TAP	72	96	1
TAP	72	96	6
BRK	72	192	2
BRK	72	192	5
HLD	73	0	1	192
HLD	73	192	2	192
HLD	74	0	3	192
TAP	74	192	4
HLD	75	0	5	192
HLD	75	192	6	192
HLD	76	0	7	192
TAP	76	192	0
TAP	77	0	2
TAP	77	96	2
TAP	77	192	1
TAP	77	192	3
TAP	78	0	5
TAP	78	96	5
TAP	78	192	4
TAP	78	192	6
TAP	79	0	2
TAP	79	0	3
TAP	79	96	2
TAP	79	96	3
TAP	79	192	4
TAP	79	192	5
TAP	79	288	4
TAP	79	288	5
TAP	80	0	3
TAP	80	0	4
TAP	80	96	3
TAP	80	96	4
BRK	80	192	2
BRK	80	192	5
HLD	81	0	1	192
TAP	81	192	0
TAP	82	0	7
TAP	82	96	6
TAP	82	192	0
TAP	82	192	5
TAP	83	0	6
TAP	83	0	7
STR	83	192	6
SI_	83	192	6	96	144	3
STR	83	192	7
SI_	83	192	7	96	144	2
TAP	84	192	1
TAP	84	192	4
HLD	85	0	5	192
TAP	85	192	4
TAP	86	0	3
TAP	86	96	2
TAP	86	192	1
TAP	86	192	4
TAP	87	0	2
TAP	87	0	3
STR	87	192	0
SI_	87	192	0	96	144	5
STR	87	192	1
SI_	87	192	1	96	144	4
TAP	88	192	3
TAP	88	192	6
HLD	89	0	6	192
TAP	89	192	7
TAP	90	0	0
TAP	90	0	7
TAP	90	96	0
TAP	90	96	7
TAP	90	192	1
TAP	90	192	6
STR	91	0	2
SCL	91	0	2	96	336	5
TAP	91	0	3
TAP	92	192	3
TAP	92	192	4
HLD	93	0	6	192
TAP	93	192	7
HLD	94	0	1	192
TAP	94	192	0
TAP	95	0	6
TAP	95	0	7
TAP	95	192	0
TAP	95	192	1
TAP	96	0	4
TAP	96	0	6
TAP	96	192	1
TAP	96	192	3
STR	97	0	2
SLL	97	0	2	96	480	3
STR	97	0	5
SLR	97	0	5	96	480	4
TAP	99	0	5
TAP	99	96	5
TAP	99	192	4
TAP	99	288	4
TAP	100	0	3
TAP	100	96	2
TAP	100	192	1
TAP	100	192	4
TAP	101	0	2
TAP	101	96	2
TAP	101	192	3
TAP	101	288	3
TAP	102	0	4
TAP	102	96	5
TAP	102	192	3
TAP	102	192	6
TAP	103	0	6
TAP	103	96	6
TAP	103	192	7
TAP	103	288	7
TAP	104	0	0
TAP	104	0	7
TAP	104	96	1
TAP	104	96	6
TAP	104	192	2
TAP	104	192	5
STR	105	0	4
SI_	105	0	4	96	144	1
STR	105	0	5
SI_	105	0	5	96	144	0
TAP	106	0	2
TAP	106	0	7
TAP	106	192	3
TAP	106	192	6
STR	107	0	2
SI_	107	0	2	96	144	7
STR	107	0	3
SI_	107	0	3	96	144	6
TAP	108	0	0
TAP	108	0	5
TAP	108	192	1
TAP	108	192	4
TAP	109	0	7
TAP	109	96	6
TAP	109	192	5
TAP	109	288	4
TAP	110	0	3
TAP	110	96	2
TAP	110	192	0
TAP	110	192	1
TAP	111	0	3
TAP	111	96	4
TAP	111	192	5
TAP	111	288	6
TAP	112	0	7
TAP	112	96	0
TAP	112	192	1
TAP	112	288	2
TAP	113	0	3
TAP	113	0	4
BRK	113	96	2
BRK	113	96	5

T_REC_TAP	283
T_REC_BRK	10
T_REC_XTP	0
T_REC_HLD	38
T_REC_XHO	0
T_REC_STR	21
T_REC_BST	0
T_REC_XST	0
T_REC_TTP	0
T_REC_THO	0
T_REC_SLD	21
T_REC_ALL	373
T_NUM_TAP	304
T_NUM_BRK	10
T_NUM_HLD	38
T_NUM_SLD	21
T_NUM_ALL	373
T_JUDGE_TAP	314
T_JUDGE_HLD	144
T_JUDGE_SLD	21
T_JUDGE_ALL	479
TTM_EACHPAIRS	82
TTM_SCR_TAP	152000
TTM_SCR_BRK	26000
TTM_SCR_HLD	38000
TTM_SCR_SLD	31500
TTM_SCR_ALL	247500
TTM_SCR_S	239150
TTM_SCR_SS	246500
TTM_RAT_ACV	10040

