VERSION	0.00.00	1.03.00
FES_MODE	0
BPM_DEF	217.000	217.000	217.000	217.000
MET_DEF	4	4
RESOLUTION	384
CLK_DEF	384
COMPATIBLE_CODE	MA2

BPM	0	0	217.000

TAP	8	0	0
TAP	8	96	0
TAP	9	0	1
TAP	9	96	1
TAP	10	0	2
TAP	10	96	2
TAP	11	0	3
TAP	11	96	3
TAP	12	0	4
TAP	12	96	4
TAP	13	0	5
TAP	13	96	5
TAP	14	0	6
TAP	14	96	6
TAP	15	0	0
TAP	15	0	7
HLD	16	0	7	192
TAP	17	0	6
TAP	17	192	6
HLD	18	0	5	192
TAP	19	0	4
TAP	19	192	4
HLD	20	0	3	192
TAP	21	0	2
TAP	21	192	2
HLD	22	0	1	192
TAP	23	0	0
TAP	23	0	7
TAP	24	0	0
TAP	24	192	0
TAP	25	0	0
TAP	25	96	0
TAP	25	192	0
TAP	26	0	7
TAP	26	192	7
TAP	27	0	0
TAP	27	0	7
TAP	28	0	6
TAP	28	192	6
TAP	29	0	6
TAP	29	96	6
TAP	29	192	6
TAP	30	0	5
TAP	30	192	5
TAP	31	0	4
TAP	31	0	5
STR	32	0	3
SI_	32	0	3	96	288	0
TAP	34	0	0
TAP	34	192	0
TAP	35	0	0
TAP	35	96	0
TAP	35	192	0
STR	36	0	7
SI_	36	0	7	96	288	4
TAP	38	0	4
TAP	38	192	4
TAP	39	0	3
TAP	39	192	3
HLD	40	0	2	192
TAP	41	0	1
TAP	41	192	1
HLD	42	0	0	192
TAP	43	0	7
TAP	43	192	7
HLD	44	0	6	192
TAP	45	0	5
TAP	45	192	5
HLD	46	0	4	192
TAP	47	0	3
TAP	47	0	4
TAP	47	192	3
TAP	47	192	4
BRK	48	0	3
BRK	48	0	4
TAP	49	0	4
TAP	49	96	4
TAP	49	192	4
TAP	50	0	5
TAP	50	96	5
TAP	50	192	5
TAP	51	0	6
TAP	51	96	6
TAP	51	192	6
TAP	52	0	7
TAP	52	96	7
TAP	52	192	0
TAP	52	192	7
TAP	53	0	0
TAP	53	96	0
TAP	53	192	0
TAP	54	0	1
TAP	54	96	1
TAP	54	192	1
TAP	55	0	2
TAP	55	96	2
TAP	55	192	2
TAP	56	0	3
TAP	56	0	4
TAP	56	192	3
TAP	56	192	4
TAP	57	0	3
TAP	57	96	3
TAP	57	192	3
TAP	58	0	2
TAP	58	96	2
TAP	58	192	2
TAP	59	0	1
TAP	59	96	1
TAP	59	192	1
TAP	60	0	0
TAP	60	96	0
TAP	60	192	0
TAP	60	192	1
TAP	61	0	7
TAP	61	96	7
TAP	61	192	7
TAP	62	0	6
TAP	62	96	6
TAP	62	192	6
TAP	63	0	5
TAP	63	96	5
TAP	63	192	5
TAP	64	0	4
TAP	64	96	4
TAP	64	192	4
TAP	64	192	5
TAP	65	0	6
TAP	65	192	6
TAP	66	0	5
TAP	66	192	5
HLD	67	0	3	192
HLD	67	0	4	192
TAP	68	0	3
TAP	68	0	4
TAP	69	0	2
TAP	69	192	2
TAP	70	0	1
TAP	70	192	1
HLD	71	0	0	192
HLD	71	0	7	192
TAP	72	0	0
TAP	72	0	7
TAP	73	0	1
TAP	73	192	1
TAP	74	0	2
TAP	74	192	2
HLD	75	0	3	192
HLD	75	0	4	192
TAP	76	0	3
TAP	76	0	4
TAP	77	0	5
TAP	77	192	5
TAP	78	0	6
TAP	78	192	6
HLD	79	0	0	192
HLD	79	0	7	192
TAP	80	0	0
TAP	80	0	7
STR	81	0	6
SI_	81	0	6	96	288	2
TAP	83	0	1
TAP	83	192	1
TAP	84	0	0
TAP	84	96	0
TAP	84	192	0
STR	85	0	1
SI_	85	0	1	96	288	5
TAP	87	0	6
TAP	87	192	6
TAP	88	0	7
TAP	88	96	7
TAP	88	192	7
STR	89	0	6
SI_	89	0	6	96	288	2
TAP	91	0	1
TAP	91	192	1
TAP	92	0	0
TAP	92	96	0
TAP	92	192	0
TAP	93	0	7
TAP	93	192	7
TAP	94	0	7
TAP	95	0	6
TAP	95	0	7
TAP	95	192	6
TAP	95	192	7
TAP	96	0	6
TAP	96	0	7
HLD	97	0	0	384
HLD	97	0	7	384
TAP	99	0	7
TAP	99	96	7
TAP	99	192	6
TAP	99	288	6
TAP	100	0	5
TAP	100	96	5
TAP	100	192	4
TAP	101	0	3
TAP	101	96	3
TAP	101	192	2
TAP	101	288	2
TAP	102	0	1
TAP	102	96	1
TAP	102	192	0
TAP	103	0	0
TAP	103	96	0
TAP	103	192	1
TAP	103	288	1
TAP	104	0	2
TAP	104	96	2
TAP	104	192	3
TAP	105	0	4
TAP	105	96	4
TAP	105	192	5
TAP	105	288	5
TAP	106	0	6
TAP	106	96	6
TAP	106	192	7
TAP	107	0	0
TAP	107	96	0
TAP	107	192	0
TAP	108	0	7
TAP	108	96	7
TAP	108	192	7
TAP	109	0	0
TAP	109	96	0
TAP	109	192	1
TAP	109	288	1
TAP	110	0	2
TAP	110	96	2
TAP	110	192	3
TAP	110	288	3
TAP	111	0	4
TAP	111	96	4
TAP	111	192	5
TAP	111	288	5
TAP	112	0	6
TAP	112	96	6
TAP	112	192	7
TAP	112	288	7
TAP	113	0	0
TAP	113	0	7
BRK	113	96	0
BRK	113	96	7

T_REC_TAP	213
T_REC_BRK	4
T_REC_XTP	0
T_REC_HLD	18
T_REC_XHO	0
T_REC_STR	5
T_REC_BST	0
T_REC_XST	0
T_REC_TTP	0
T_REC_THO	0
T_REC_SLD	5
T_REC_ALL	245
T_NUM_TAP	218
T_NUM_BRK	4
T_NUM_HLD	18
T_NUM_SLD	5
T_NUM_ALL	245
T_JUDGE_TAP	222
T_JUDGE_HLD	80
T_JUDGE_SLD	5
T_JUDGE_ALL	307
TTM_EACHPAIRS	26
TTM_SCR_TAP	109000
TTM_SCR_BRK	10400
TTM_SCR_HLD	18000
TTM_SCR_SLD	7500
TTM_SCR_ALL	144900
TTM_SCR_S	140200
TTM_SCR_SS	144500
TTM_RAT_ACV	10027

