VERSION	0.00.00	1.03.00
FES_MODE	0
BPM_DEF	168.000	168.000	168.000	168.000
MET_DEF	4	4
RESOLUTION	384
CLK_DEF	384
COMPATIBLE_CODE	MA2

BPM	0	0	168.000

BRK	1	0	1
HLD	1	0	5	576
TAP	1	192	3
TAP	2	0	3
TAP	2	192	3
HLD	3	0	2	576
BRK	3	0	6
TAP	3	192	4
TAP	4	0	4
TAP	4	192	4
BRK	5	0	3
HLD	5	0	6	672
TAP	5	96	3
TAP	5	192	2
TAP	5	288	2
TAP	6	0	1
TAP	6	96	1
TAP	6	192	0
TAP	6	288	0
HLD	7	0	1	672
BRK	7	0	4
TAP	7	96	4
TAP	7	192	5
TAP	7	288	5
TAP	8	0	6
TAP	8	96	6
STR	8	192	7
SI_	8	192	7	96	48	3
STR	9	0	2
SI_	9	0	2	96	48	6
SI_	9	0	2	96	48	7
HLD	9	192	1	72
HLD	9	264	3	72
TAP	9	336	4
HLD	10	0	7	72
HLD	10	72	5	72
TAP	10	144	4
STR	10	192	3
SI_	10	192	3	96	48	1
SI_	10	192	3	96	48	7
STR	11	0	5
SI_	11	0	5	96	48	0
SI_	11	0	5	96	48	1
HLD	11	192	6	72
HLD	11	264	4	72
STR	11	336	3
SCR	11	336	3	96	96	7
HLD	12	0	0	96
TAP	12	192	0
TAP	12	192	1
TAP	12	288	7
TAP	12	336	6
STR	13	0	0
SI_	13	0	0	96	48	3
STR	13	0	5
SI_	13	0	5	96	48	2
TAP	13	192	4
TAP	13	192	5
TAP	13	240	3
TAP	13	288	2
TAP	13	336	1
STR	14	0	0
SCR	14	0	0	96	48	3
STR	14	96	0
SCL	14	96	0	96	48	5
TAP	14	192	0
TAP	14	288	2
TAP	14	336	3
STR	15	0	4
SI_	15	0	4	96	48	0
STR	15	0	5
SI_	15	0	5	96	48	0
STR	15	192	2
SI_	15	192	2	96	48	7
STR	15	192	3
SI_	15	192	3	96	48	7
STR	16	0	0
SXL	16	0	0	96	192	3
STR	16	0	7
SXR	16	0	7	96	192	4
TAP	17	0	0
STR	17	0	5
SI_	17	0	5	96	48	2
TAP	17	192	1
TAP	17	240	1
TAP	17	288	0
TAP	17	288	1
STR	18	0	7
SCL	18	0	7	96	96	4
STR	18	96	4
SCL	18	96	4	96	96	1
TAP	18	192	1
TAP	18	288	7
STR	19	0	2
SI_	19	0	2	96	48	5
TAP	19	0	7
TAP	19	192	6
TAP	19	240	6
TAP	19	288	6
TAP	19	288	7
STR	20	0	0
SCR	20	0	0	96	96	3
STR	20	96	3
SCR	20	96	3	96	96	6
TAP	20	192	6
TAP	20	288	0
TAP	21	0	1
STR	21	0	4
SI_	21	0	4	96	48	7
TAP	21	192	2
TAP	21	240	2
TAP	21	288	2
TAP	21	288	3
STR	22	0	6
SCL	22	0	6	96	96	3
STR	22	96	3
SCL	22	96	3	96	96	0
TAP	22	192	0
TAP	22	288	5
STR	23	0	3
SI_	23	0	3	96	48	0
TAP	23	0	6
TAP	23	192	5
TAP	23	240	5
TAP	23	288	4
TAP	23	288	5
STR	24	0	2
SSL	24	0	2	96	96	6
TAP	24	0	3
TAP	24	288	1
TAP	24	288	5
STR	25	0	0
SI_	25	0	0	96	48	4
HLD	25	0	7	96
TAP	25	96	0
TAP	25	192	2
TAP	25	192	3
TAP	25	240	2
TAP	25	288	2
TAP	25	288	3
STR	26	0	1
SI_	26	0	1	96	48	5
STR	26	48	5
SI_	26	48	5	96	48	1
STR	26	192	6
SI_	26	192	6	96	48	1
SI_	26	192	6	96	48	3
HLD	27	0	0	96
STR	27	0	7
SI_	27	0	7	96	48	3
TAP	27	96	7
TAP	27	192	4
TAP	27	192	5
TAP	27	240	5
TAP	27	288	4
TAP	27	288	5
STR	28	0	6
SI_	28	0	6	96	48	2
STR	28	48	2
SI_	28	48	2	96	48	6
STR	28	192	0
SI_	28	192	0	96	48	3
SI_	28	192	0	96	48	5
STR	29	0	1
SI_	29	0	1	96	48	5
HLD	29	0	4	96
TAP	29	96	1
TAP	29	192	6
TAP	29	192	7
TAP	29	240	6
TAP	29	288	6
TAP	29	288	7
STR	30	0	0
SI_	30	0	0	96	48	4
STR	30	48	4
SI_	30	48	4	96	48	0
STR	30	192	6
SI_	30	192	6	96	48	1
SI_	30	192	6	96	48	3
STR	31	0	0
SI_	31	0	0	96	48	5
TAP	31	48	0
STR	31	96	7
SI_	31	96	7	96	48	2
TAP	31	144	7
STR	31	192	1
SI_	31	192	1	96	48	4
TAP	31	240	1
STR	31	288	5
SCR	31	288	5	96	192	2
SUR	31	288	5	96	192	2
HLD	33	0	0	288
STR	33	0	6
SCR	33	0	6	96	192	3
HLD	34	0	3	288
STR	34	0	5
SCL	34	0	5	96	192	0
STR	35	0	1
SCL	35	0	1	96	192	4
HLD	35	0	7	288
STR	36	0	2
SCR	36	0	2	96	192	7
HLD	36	0	4	288
HLD	37	0	1	288
HLD	37	0	6	96
HLD	37	192	3	384
TAP	38	0	4
TAP	38	48	4
TAP	38	96	4
TAP	38	144	4
TAP	38	192	4
TAP	38	288	2
TAP	38	288	5
TAP	39	0	1
TAP	39	48	0
TAP	39	96	7
TAP	39	144	6
TAP	39	192	0
STR	39	192	5
SI_	39	192	5	96	48	0
TAP	40	0	6
TAP	40	48	7
TAP	40	96	0
TAP	40	144	1
STR	40	192	2
SI_	40	192	2	96	48	7
TAP	40	192	7
TAP	41	0	0
STR	41	0	4
SI_	41	0	4	96	48	0
STR	41	192	3
SI_	41	192	3	96	48	7
TAP	41	192	7
STR	42	0	4
SUR	42	0	4	96	192	3
STR	42	0	5
SCR	42	0	5	96	192	2
HLD	43	0	3	48
HLD	43	0	4	48
HLD	43	96	2	48
HLD	43	96	3	48
HLD	43	192	3	48
HLD	43	192	4	48
HLD	43	288	4	48
HLD	43	288	5	48
HLD	44	0	3	48
HLD	44	0	4	48
HLD	44	96	1	48
HLD	44	96	3	48
HLD	44	192	3	48
HLD	44	192	4	48
HLD	44	288	4	48
HLD	44	288	6	48
TAP	45	0	3
TAP	45	0	4
TAP	45	48	2
TAP	45	72	3
TAP	45	96	1
TAP	45	144	5
TAP	45	168	4
TAP	45	192	6
TAP	45	240	2
TAP	45	264	3
TAP	45	288	1
TAP	45	336	5
TAP	45	360	4
TAP	46	0	6
TAP	46	48	3
TAP	46	72	4
TAP	46	96	2
TAP	46	120	5
TAP	46	144	1
TAP	46	168	6
STR	46	192	0
SI_	46	192	0	96	48	4
TAP	46	216	7
TAP	46	240	0
TAP	46	264	7
BRK	46	288	0
BRK	47	0	6
BRK	47	0	7
TAP	47	48	6
TAP	47	48	7
TAP	47	96	2
TAP	47	120	3
TAP	47	144	2
STR	47	192	3
SI_	47	192	3	96	48	7
STR	47	192	6
SI_	47	192	6	96	48	4
HLD	48	0	1	48
HLD	48	0	3	48
HLD	48	96	4	48
HLD	48	96	6	48
TAP	48	192	3
TAP	48	192	5
TAP	48	264	1
TAP	48	264	6
TAP	48	336	0
TAP	48	336	3
STR	49	0	4
SI_	49	0	4	96	48	0
SI_	49	0	4	96	48	6
STR	49	192	3
SI_	49	192	3	96	48	1
SI_	49	192	3	96	48	7
TAP	50	0	2
TAP	50	0	3
TAP	50	72	5
TAP	50	72	6
TAP	50	144	0
TAP	50	144	1
BST	50	192	6
SI_	50	192	6	96	48	3
BRK	50	216	7
BRK	50	240	6
BRK	50	264	7
BRK	50	288	6
TAP	51	0	0
TAP	51	0	1
TAP	51	48	0
TAP	51	48	1
TAP	51	96	5
TAP	51	120	4
TAP	51	144	5
STR	51	192	1
SI_	51	192	1	96	48	3
STR	51	192	4
SI_	51	192	4	96	48	0
HLD	52	0	4	48
HLD	52	0	6	48
HLD	52	96	1	48
HLD	52	96	3	48
TAP	52	192	2
TAP	52	192	4
TAP	52	264	1
TAP	52	264	6
TAP	52	336	4
TAP	52	336	7
STR	53	0	3
SI_	53	0	3	96	48	1
SI_	53	0	3	96	48	7
STR	53	192	4
SI_	53	192	4	96	48	0
SI_	53	192	4	96	48	6
TAP	54	0	4
TAP	54	0	5
TAP	54	72	1
TAP	54	72	2
TAP	54	144	6
TAP	54	144	7
BST	54	192	1
SI_	54	192	1	96	48	4
BRK	54	216	0
BRK	54	240	1
BRK	54	264	0
BRK	54	288	1
STR	55	0	6
SI_	55	0	6	96	48	3
TAP	55	24	7
TAP	55	48	5
TAP	55	72	0
TAP	55	96	6
STR	55	192	1
SI_	55	192	1	96	48	4
TAP	55	216	0
TAP	55	240	2
TAP	55	264	7
TAP	55	288	1
TAP	56	0	6
TAP	56	0	7
TAP	56	48	4
TAP	56	96	6
TAP	56	96	7
TAP	56	144	0
STR	56	192	3
SI_	56	192	3	96	48	0
STR	56	192	4
SI_	56	192	4	96	48	7
STR	57	0	1
SI_	57	0	1	96	48	4
TAP	57	24	0
TAP	57	48	2
TAP	57	72	7
TAP	57	96	1
STR	57	192	6
SI_	57	192	6	96	48	3
TAP	57	216	7
TAP	57	240	5
TAP	57	264	0
TAP	57	288	6
HLD	58	0	1	48
TAP	58	48	7
TAP	58	72	0
TAP	58	96	6
TAP	58	120	1
TAP	58	144	5
TAP	58	168	2
TAP	58	192	4
BRK	58	288	1
BRK	58	288	6
STR	59	0	0
SI_	59	0	0	96	48	4
STR	59	0	1
SI_	59	0	1	96	48	3
TAP	59	96	0
TAP	59	96	1
STR	59	192	6
SI_	59	192	6	96	48	4
STR	59	192	7
SI_	59	192	7	96	48	3
TAP	59	288	6
TAP	59	288	7
HLD	60	0	2	96
TAP	60	48	0
HLD	60	96	3	96
TAP	60	144	0
HLD	60	192	2	96
TAP	60	240	0
TAP	60	288	4
TAP	60	336	0
STR	61	0	6
SI_	61	0	6	96	48	4
STR	61	0	7
SI_	61	0	7	96	48	3
TAP	61	96	6
TAP	61	96	7
STR	61	192	0
SI_	61	192	0	96	48	4
STR	61	192	1
SI_	61	192	1	96	48	3
TAP	61	288	0
TAP	61	288	1
HLD	62	0	5	96
TAP	62	48	7
HLD	62	96	4	96
TAP	62	144	7
HLD	62	192	5	96
TAP	62	240	7
TAP	62	288	3
TAP	62	336	7
BST	63	0	0
SI_	63	0	0	96	48	5
BST	63	0	1
SI_	63	0	1	96	48	4
BRK	63	96	0
BRK	63	96	1
BST	63	192	6
SI_	63	192	6	96	48	3
BST	63	192	7
SI_	63	192	7	96	48	2
BRK	63	288	6
BRK	63	288	7
HLD	64	0	2	96
TAP	64	48	0
HLD	64	96	4	96
TAP	64	144	0
HLD	64	192	3	96
TAP	64	240	0
TAP	64	288	5
TAP	64	336	0
BST	65	0	6
SI_	65	0	6	96	48	3
BST	65	0	7
SI_	65	0	7	96	48	2
BRK	65	96	6
BRK	65	96	7
BST	65	192	0
SI_	65	192	0	96	48	5
BST	65	192	1
SI_	65	192	1	96	48	4
BRK	65	288	0
BRK	65	288	1
HLD	66	0	5	96
TAP	66	48	7
HLD	66	96	3	96
TAP	66	144	7
HLD	66	192	4	96
TAP	66	240	7
TAP	66	288	2
TAP	66	336	7
TAP	67	0	4
TAP	67	0	5
TAP	67	48	4
TAP	67	48	5
TAP	67	96	2
TAP	67	120	3
TAP	67	144	2
STR	67	192	1
SI_	67	192	1	96	48	4
STR	67	192	6
SI_	67	192	6	96	48	3
STR	68	0	2
SXR	68	0	2	96	96	4
STR	68	0	5
SXL	68	0	5	96	96	3
BRK	68	288	0
BRK	68	288	7
TAP	69	0	1
TAP	69	48	1
TAP	69	96	2
TAP	69	96	3
TAP	69	144	3
TAP	69	144	4
HLD	69	192	6	72
HLD	69	264	4	72
TAP	69	336	3
HLD	70	0	0	72
HLD	70	72	2	72
TAP	70	144	3
STR	70	192	4
SI_	70	192	4	96	48	0
STR	70	192	5
SI_	70	192	5	96	48	1
STR	71	0	2
SI_	71	0	2	96	48	6
SI_	71	0	2	96	48	7
HLD	71	192	1	72
HLD	71	264	3	72
STR	71	336	4
SCL	71	336	4	96	96	0
HLD	72	0	7	96
TAP	72	192	6
TAP	72	192	7
TAP	72	288	0
TAP	72	336	1
STR	73	0	2
SI_	73	0	2	96	48	5
STR	73	0	7
SI_	73	0	7	96	48	4
TAP	73	96	2
TAP	73	96	7
TAP	73	192	2
TAP	73	192	3
TAP	73	240	4
TAP	73	288	5
TAP	73	336	6
STR	74	0	7
SCL	74	0	7	96	48	4
STR	74	96	7
SCR	74	96	7	96	48	2
TAP	74	192	7
TAP	74	288	5
TAP	74	336	4
STR	75	0	3
SI_	75	0	3	96	48	7
TAP	75	48	3
STR	75	96	4
SI_	75	96	4	96	48	6
TAP	75	144	4
STR	75	192	3
SI_	75	192	3	96	48	1
TAP	75	240	3
TAP	75	288	4
STR	76	0	2
SI_	76	0	2	96	48	5
STR	76	0	6
SI_	76	0	6	96	48	1
STR	76	192	3
SI_	76	192	3	96	48	0
STR	76	192	7
SI_	76	192	7	96	48	4
TAP	77	0	6
TAP	77	48	6
TAP	77	96	4
TAP	77	96	5
TAP	77	144	3
TAP	77	144	4
HLD	77	192	1	72
HLD	77	264	3	72
TAP	77	336	4
HLD	78	0	7	72
HLD	78	72	5	72
TAP	78	144	4
STR	78	192	2
SI_	78	192	2	96	48	6
STR	78	192	3
SI_	78	192	3	96	48	7
STR	79	0	3
SI_	79	0	3	96	48	0
TAP	79	0	4
BRK	79	96	7
STR	79	192	3
SI_	79	192	3	96	48	0
TAP	79	192	4
BRK	79	288	7
STR	80	0	3
SI_	80	0	3	96	48	0
TAP	80	0	4
BRK	80	96	7
TAP	80	192	0
BRK	80	192	7
TAP	80	240	1
BRK	80	240	7
TAP	80	288	2
BRK	80	288	7
TAP	80	336	3
BRK	80	336	7
STR	81	0	4
SI_	81	0	4	96	48	7
STR	81	0	5
SI_	81	0	5	96	48	2
TAP	81	96	4
TAP	81	96	5
TAP	81	192	0
TAP	81	192	1
TAP	81	240	7
TAP	81	288	6
TAP	81	336	5
STR	82	0	3
SI_	82	0	3	96	48	1
STR	82	0	4
SI_	82	0	4	96	48	0
STR	82	96	3
SI_	82	96	3	96	48	7
STR	82	96	4
SI_	82	96	4	96	48	6
TAP	82	192	3
TAP	82	192	4
TAP	82	288	2
TAP	82	336	3
STR	83	0	4
SI_	83	0	4	96	48	0
TAP	83	48	4
STR	83	96	3
SI_	83	96	3	96	48	1
TAP	83	144	3
STR	83	192	4
SI_	83	192	4	96	48	6
TAP	83	240	4
TAP	83	288	3
STR	84	0	1
SI_	84	0	1	96	48	6
STR	84	0	5
SI_	84	0	5	96	48	2
STR	84	192	0
SI_	84	192	0	96	48	3
STR	84	192	4
SI_	84	192	4	96	48	7
TAP	85	0	0
TAP	85	48	4
TAP	85	72	3
TAP	85	96	4
TAP	85	120	3
TAP	85	144	4
STR	85	192	1
SI_	85	192	1	96	48	4
STR	85	192	6
SI_	85	192	6	96	48	3
TAP	85	288	1
TAP	85	288	6
TAP	86	0	2
TAP	86	24	5
TAP	86	48	2
TAP	86	72	5
TAP	86	96	1
TAP	86	120	6
TAP	86	144	1
TAP	86	168	6
TAP	86	192	0
TAP	86	192	7
TAP	86	264	4
TAP	86	264	5
TAP	86	336	1
TAP	86	336	2
TAP	87	0	3
STR	87	0	4
SXL	87	0	4	96	192	7
TAP	87	240	0
TAP	87	288	0
TAP	87	336	0
BRK	88	0	0
BRK	88	0	7

T_REC_TAP	306
T_REC_BRK	36
T_REC_XTP	0
T_REC_HLD	69
T_REC_XHO	0
T_REC_STR	115
T_REC_BST	10
T_REC_XST	0
T_REC_TTP	0
T_REC_THO	0
T_REC_SLD	137
T_REC_ALL	673
T_NUM_TAP	421
T_NUM_BRK	46
T_NUM_HLD	69
T_NUM_SLD	137
T_NUM_ALL	673
T_JUDGE_TAP	467
T_JUDGE_HLD	183
T_JUDGE_SLD	137
T_JUDGE_ALL	787
TTM_EACHPAIRS	130
TTM_SCR_TAP	210500
TTM_SCR_BRK	119600
TTM_SCR_HLD	69000
TTM_SCR_SLD	205500
TTM_SCR_ALL	604600
TTM_SCR_S	582000
TTM_SCR_SS	600000
TTM_RAT_ACV	10076

