VERSION	0.00.00	1.03.00
FES_MODE	0
BPM_DEF	168.000	168.000	168.000	168.000
MET_DEF	4	4
RESOLUTION	384
CLK_DEF	384
COMPATIBLE_CODE	MA2

BPM	0	0	168.000

HLD	1	0	2	192
BRK	1	0	5
HLD	1	192	3	192
HLD	2	0	4	192
TAP	2	192	5
BRK	3	0	3
HLD	3	0	6	192
HLD	3	192	5	192
HLD	4	0	4	192
TAP	4	192	3
HLD	5	0	1	192
BRK	5	0	6
HLD	5	192	0	192
HLD	6	0	7	192
TAP	6	192	6
BRK	7	0	0
HLD	7	0	5	192
HLD	7	192	6	192
HLD	8	0	7	192
TAP	8	192	0
TAP	9	0	2
TAP	9	96	3
TAP	9	192	2
TAP	9	288	1
TAP	9	288	4
TAP	10	0	5
TAP	10	96	4
TAP	10	192	5
TAP	10	288	3
TAP	10	288	6
TAP	11	0	1
TAP	11	96	0
TAP	11	192	1
STR	11	288	2
SCL	11	288	2	96	192	5
TAP	11	288	7
TAP	12	288	0
TAP	12	288	7
HLD	13	0	4	96
HLD	13	0	6	96
HLD	13	192	1	96
HLD	13	192	3	96
TAP	14	0	4
TAP	14	0	6
TAP	14	96	3
TAP	14	96	4
BRK	14	192	1
BRK	14	192	3
TAP	15	0	2
TAP	15	96	1
TAP	15	96	3
TAP	15	192	4
TAP	15	288	3
STR	15	288	5
SCR	15	288	5	96	192	1
SUR	15	288	5	96	192	2
TAP	16	288	3
TAP	16	288	4
TAP	17	0	2
TAP	17	96	2
TAP	17	96	3
TAP	17	192	5
TAP	17	288	4
TAP	17	288	5
HLD	18	0	2	288
TAP	18	96	3
TAP	18	192	1
TAP	18	288	3
TAP	19	0	5
TAP	19	96	4
TAP	19	96	5
TAP	19	192	2
TAP	19	288	2
TAP	19	288	3
HLD	20	0	6	144
TAP	20	96	7
TAP	20	144	7
TAP	20	240	0
TAP	20	240	5
TAP	20	288	0
TAP	20	288	5
TAP	21	0	6
TAP	21	96	6
TAP	21	96	7
TAP	21	192	1
TAP	21	288	0
TAP	21	288	1
HLD	22	0	6	288
TAP	22	96	7
TAP	22	192	5
TAP	22	288	7
TAP	23	0	5
TAP	23	96	4
TAP	23	96	5
TAP	23	192	2
TAP	23	288	2
TAP	23	288	3
HLD	24	0	5	144
TAP	24	96	4
TAP	24	144	4
BRK	24	240	3
BRK	24	240	6
TAP	25	0	2
TAP	25	96	1
TAP	25	96	3
TAP	25	192	5
TAP	25	288	4
TAP	25	288	6
HLD	26	0	1	288
TAP	26	96	0
TAP	26	192	2
TAP	26	288	0
TAP	27	0	5
TAP	27	96	4
TAP	27	96	6
TAP	27	192	2
TAP	27	288	1
TAP	27	288	3
HLD	28	0	6	144
TAP	28	96	7
TAP	28	144	7
TAP	28	240	0
TAP	28	240	5
TAP	28	288	0
TAP	28	288	5
TAP	29	0	1
TAP	29	0	6
TAP	29	96	3
TAP	29	96	4
TAP	29	192	2
TAP	29	288	1
TAP	29	288	3
HLD	30	0	5	144
TAP	30	96	4
TAP	30	144	4
TAP	30	240	3
TAP	30	240	6
TAP	30	288	3
TAP	30	288	6
TAP	31	0	0
TAP	31	0	7
TAP	31	96	0
TAP	31	96	7
TAP	31	192	1
TAP	31	192	6
STR	31	288	1
SV_	31	288	1	96	144	2
STR	31	288	6
SV_	31	288	6	96	144	5
TAP	32	288	3
TAP	32	288	4
HLD	33	0	5	192
HLD	33	192	4	192
STR	34	0	3
SCR	34	0	3	96	192	6
HLD	35	0	2	192
HLD	35	192	3	192
STR	36	0	4
SCL	36	0	4	96	192	1
HLD	37	0	7	192
HLD	37	192	0	192
TAP	38	0	7
TAP	38	96	0
TAP	38	96	6
BRK	38	192	1
BRK	38	192	5
HLD	39	0	2	240
TAP	39	96	3
HLD	39	144	3	96
TAP	39	288	1
TAP	39	288	4
HLD	40	0	5	240
TAP	40	96	4
HLD	40	144	4	96
TAP	40	288	3
TAP	40	288	6
HLD	41	0	1	240
TAP	41	96	0
HLD	41	144	0	96
TAP	41	288	2
TAP	41	288	7
HLD	42	0	6	240
TAP	42	96	7
HLD	42	144	7	96
TAP	42	288	0
STR	42	288	5
SCR	42	288	5	96	576	3
TAP	45	0	2
TAP	45	48	2
TAP	45	96	3
TAP	45	144	1
TAP	45	192	5
TAP	45	240	5
TAP	45	288	4
TAP	45	336	6
TAP	46	0	3
TAP	46	48	4
TAP	46	96	3
TAP	46	96	4
BRK	46	192	1
BRK	46	192	6
STR	46	288	6
SI_	46	288	6	96	48	3
STR	47	0	1
SI_	47	0	1	96	48	4
STR	47	96	5
SCR	47	96	5	96	96	2
TAP	48	0	5
TAP	48	48	5
TAP	48	96	4
TAP	48	96	6
TAP	48	192	2
TAP	48	240	2
TAP	48	288	1
TAP	48	288	3
STR	49	0	0
SI_	49	0	0	96	48	3
STR	49	0	4
SI_	49	0	4	96	48	7
STR	49	192	3
SI_	49	192	3	96	48	0
STR	49	192	7
SI_	49	192	7	96	48	4
STR	50	0	0
SI_	50	0	0	96	48	3
STR	50	0	4
SI_	50	0	4	96	48	7
BRK	50	192	2
BRK	50	192	6
BST	50	288	1
SI_	50	288	1	96	48	4
BRK	50	288	5
STR	51	0	6
SI_	51	0	6	96	48	3
STR	51	96	2
SCL	51	96	2	96	96	5
TAP	52	0	2
TAP	52	48	2
TAP	52	96	1
TAP	52	96	3
TAP	52	192	5
TAP	52	240	5
TAP	52	288	4
TAP	52	288	6
STR	53	0	3
SI_	53	0	3	96	48	0
STR	53	0	7
SI_	53	0	7	96	48	4
STR	53	192	0
SI_	53	192	0	96	48	3
STR	53	192	4
SI_	53	192	4	96	48	7
BST	54	0	3
SXR	54	0	3	96	192	0
BST	54	0	7
SXR	54	0	7	96	192	4
TAP	55	0	2
TAP	55	48	3
TAP	55	96	1
TAP	55	96	4
TAP	55	192	5
TAP	55	240	4
TAP	55	288	3
STR	55	288	6
SI_	55	288	6	96	48	3
STR	56	0	0
SI_	56	0	0	96	48	4
TAP	56	96	7
TAP	56	192	1
TAP	56	192	6
TAP	57	0	5
TAP	57	48	4
TAP	57	96	3
TAP	57	96	6
TAP	57	192	2
TAP	57	240	3
STR	57	288	1
SI_	57	288	1	96	48	4
TAP	57	288	4
STR	58	0	7
SI_	58	0	7	96	48	3
TAP	58	96	0
TAP	58	192	1
TAP	58	192	6
TAP	59	0	4
TAP	59	0	5
TAP	59	96	1
TAP	59	96	7
STR	59	192	4
SI_	59	192	4	96	48	1
SI_	59	192	4	96	48	7
TAP	59	192	5
TAP	60	0	0
TAP	60	96	2
TAP	60	96	3
TAP	60	192	7
TAP	60	288	4
TAP	60	288	5
TAP	61	0	2
TAP	61	0	3
TAP	61	96	0
TAP	61	96	6
TAP	61	192	2
STR	61	192	3
SI_	61	192	3	96	48	0
SI_	61	192	3	96	48	6
TAP	62	0	7
TAP	62	96	4
TAP	62	96	5
TAP	62	192	0
TAP	62	288	2
TAP	62	288	3
TAP	63	0	4
TAP	63	0	5
TAP	63	96	0
TAP	63	96	7
STR	63	192	4
SI_	63	192	4	96	48	1
STR	63	192	5
SI_	63	192	5	96	48	0
TAP	64	0	2
TAP	64	0	7
TAP	64	96	3
TAP	64	96	4
TAP	64	192	0
TAP	64	192	5
TAP	64	288	3
TAP	64	288	4
TAP	65	0	2
TAP	65	0	3
TAP	65	96	0
TAP	65	96	7
STR	65	192	2
SI_	65	192	2	96	48	7
STR	65	192	3
SI_	65	192	3	96	48	6
TAP	66	0	0
TAP	66	0	5
TAP	66	96	3
TAP	66	96	4
TAP	66	192	2
TAP	66	192	7
STR	66	288	0
SI_	66	288	0	96	48	4
STR	67	0	6
SI_	67	0	6	96	48	3
STR	67	96	1
SCL	67	96	1	96	96	4
TAP	68	0	2
TAP	68	48	2
TAP	68	96	1
TAP	68	96	3
TAP	68	192	5
TAP	68	240	5
STR	68	288	4
SCR	68	288	4	96	576	3
TAP	68	288	6
TAP	71	0	0
TAP	71	0	1
TAP	71	96	2
TAP	71	96	7
TAP	71	192	6
TAP	71	192	7
TAP	71	288	0
TAP	71	288	5
HLD	72	0	1	96
HLD	72	0	6	96
TAP	72	192	3
TAP	72	192	4
TAP	72	240	3
TAP	72	240	4
TAP	72	288	3
TAP	72	288	4
HLD	73	0	5	288
TAP	73	96	4
TAP	73	192	6
TAP	73	288	0
HLD	74	0	2	288
TAP	74	96	3
TAP	74	192	1
TAP	74	288	7
TAP	75	0	1
HLD	75	0	6	192
TAP	75	96	0
TAP	75	192	7
TAP	75	288	3
TAP	75	288	4
HLD	76	0	1	192
TAP	76	0	6
TAP	76	96	7
TAP	76	192	0
TAP	76	288	3
TAP	76	288	4
TAP	77	0	5
TAP	77	96	4
TAP	77	96	6
TAP	77	192	2
TAP	77	288	1
TAP	77	288	3
TAP	78	0	5
TAP	78	96	4
HLD	78	96	6	96
TAP	78	192	7
TAP	78	288	0
TAP	78	288	5
TAP	79	0	2
TAP	79	0	3
TAP	79	96	1
TAP	79	96	4
TAP	79	192	4
TAP	79	192	5
TAP	79	288	3
TAP	79	288	6
HLD	80	0	2	96
HLD	80	0	5	96
TAP	80	192	0
TAP	80	192	7
TAP	80	240	0
TAP	80	240	7
TAP	80	288	0
TAP	80	288	7
HLD	81	0	1	288
TAP	81	96	0
TAP	81	192	2
TAP	81	288	4
HLD	82	0	6	288
TAP	82	96	7
TAP	82	192	5
TAP	82	288	3
TAP	83	0	2
HLD	83	0	5	192
TAP	83	96	3
TAP	83	192	4
TAP	83	288	0
TAP	83	288	7
HLD	84	0	2	192
TAP	84	0	5
TAP	84	96	4
TAP	84	192	3
TAP	84	288	0
STR	84	288	7
SI_	84	288	7	96	48	3
STR	85	0	1
SI_	85	0	1	96	48	4
STR	85	96	6
SCR	85	96	6	96	96	3
TAP	86	0	4
TAP	86	0	5
TAP	86	96	2
TAP	86	96	3
TAP	86	192	4
TAP	86	192	6
TAP	86	288	1
STR	86	288	3
SXL	86	288	3	96	240	3
SXR	86	288	3	96	240	3
BRK	88	0	1
BRK	88	0	6

T_REC_TAP	301
T_REC_BRK	17
T_REC_XTP	0
T_REC_HLD	50
T_REC_XHO	0
T_REC_STR	40
T_REC_BST	3
T_REC_XST	0
T_REC_TTP	0
T_REC_THO	0
T_REC_SLD	47
T_REC_ALL	458
T_NUM_TAP	341
T_NUM_BRK	20
T_NUM_HLD	50
T_NUM_SLD	47
T_NUM_ALL	458
T_JUDGE_TAP	361
T_JUDGE_HLD	188
T_JUDGE_SLD	47
T_JUDGE_ALL	596
TTM_EACHPAIRS	127
TTM_SCR_TAP	170500
TTM_SCR_BRK	52000
TTM_SCR_HLD	50000
TTM_SCR_SLD	70500
TTM_SCR_ALL	343000
TTM_SCR_S	330800
TTM_SCR_SS	341000
TTM_RAT_ACV	10058

