VERSION	0.00.00	1.03.00
FES_MODE	0
BPM_DEF	168.000	168.000	168.000	168.000
MET_DEF	4	4
RESOLUTION	384
CLK_DEF	384
COMPATIBLE_CODE	MA2

BPM	0	0	168.000

HLD	1	0	5	192
TAP	1	192	4
HLD	2	0	2	192
TAP	2	192	3
HLD	3	0	5	192
TAP	3	192	4
HLD	4	0	2	192
TAP	4	192	3
HLD	5	0	6	192
TAP	5	192	7
HLD	6	0	1	192
TAP	6	192	0
HLD	7	0	7	192
TAP	7	192	0
STR	8	0	0
SI_	8	0	0	96	192	3
STR	8	0	7
SI_	8	0	7	96	192	4
BRK	9	0	5
TAP	9	96	5
TAP	9	192	4
TAP	9	288	4
TAP	10	0	5
TAP	10	96	5
TAP	10	192	4
TAP	10	192	5
TAP	11	0	2
TAP	11	96	2
TAP	11	192	3
TAP	11	288	3
TAP	12	0	2
TAP	12	96	3
TAP	12	192	2
TAP	12	192	3
TAP	13	0	6
TAP	13	96	6
TAP	13	192	7
TAP	13	288	7
TAP	14	0	6
TAP	14	96	7
TAP	14	192	6
TAP	14	192	7
TAP	15	0	0
TAP	15	96	0
TAP	15	192	7
TAP	15	288	7
HLD	16	0	0	96
HLD	16	0	7	96
TAP	16	192	1
TAP	16	192	6
TAP	17	0	5
TAP	17	96	5
TAP	17	192	4
TAP	18	0	2
TAP	18	96	2
TAP	18	192	3
TAP	19	0	5
TAP	19	96	5
TAP	19	192	4
TAP	20	0	3
TAP	20	0	4
TAP	20	96	3
TAP	20	96	4
TAP	20	192	2
TAP	20	192	5
TAP	21	0	1
TAP	21	96	1
TAP	21	192	0
TAP	22	0	6
TAP	22	96	6
TAP	22	192	7
TAP	23	0	1
TAP	23	96	1
TAP	23	192	0
TAP	23	288	0
TAP	24	0	7
TAP	24	96	0
TAP	24	192	1
TAP	24	192	6
TAP	25	0	5
TAP	25	96	5
TAP	25	192	4
TAP	25	192	5
TAP	26	0	2
TAP	26	96	2
TAP	26	192	2
TAP	26	192	3
TAP	27	0	5
TAP	27	96	5
TAP	27	192	4
TAP	27	288	4
TAP	28	0	5
TAP	28	96	4
TAP	28	192	4
TAP	28	192	5
TAP	29	0	1
TAP	29	96	1
TAP	29	192	0
TAP	29	192	1
TAP	30	0	6
TAP	30	96	6
TAP	30	192	6
TAP	30	192	7
TAP	31	0	0
TAP	31	96	7
TAP	31	192	0
TAP	31	192	7
STR	31	288	0
SCR	31	288	0	96	240	3
STR	31	288	7
SCL	31	288	7	96	240	4
TAP	33	0	5
TAP	33	192	4
TAP	33	192	5
TAP	34	0	2
TAP	34	192	2
TAP	34	192	3
TAP	35	0	5
TAP	35	192	4
TAP	35	192	6
TAP	36	0	2
TAP	36	192	1
TAP	36	192	3
HLD	37	0	1	192
HLD	37	0	6	192
TAP	38	0	0
TAP	38	0	7
TAP	38	96	0
TAP	38	96	7
TAP	38	192	1
TAP	38	192	6
TAP	39	0	5
TAP	39	96	4
TAP	39	192	3
TAP	39	192	6
TAP	40	0	2
TAP	40	96	3
TAP	40	192	1
TAP	40	192	4
TAP	41	0	6
TAP	41	96	5
TAP	41	192	4
TAP	41	288	2
TAP	41	288	3
TAP	42	0	1
TAP	42	96	2
TAP	42	192	3
TAP	42	192	4
STR	42	288	3
SCL	42	288	3	96	576	4
TAP	42	288	4
TAP	45	0	2
TAP	45	96	2
TAP	45	192	1
TAP	45	288	1
TAP	46	0	0
TAP	46	96	7
BRK	46	192	1
BRK	46	192	6
HLD	47	0	5	96
TAP	47	96	4
TAP	47	192	3
TAP	47	192	6
TAP	48	0	6
TAP	48	96	7
TAP	48	192	0
TAP	48	288	1
HLD	49	0	2	96
TAP	49	96	3
HLD	49	192	5	96
TAP	49	288	4
HLD	50	0	3	96
TAP	50	96	4
BRK	50	192	2
BRK	50	192	5
HLD	51	0	2	96
TAP	51	96	3
TAP	51	192	1
TAP	51	192	4
TAP	52	0	1
TAP	52	96	0
TAP	52	192	7
TAP	52	288	6
HLD	53	0	5	96
TAP	53	96	4
HLD	53	192	2	96
TAP	53	288	3
HLD	54	0	4	96
TAP	54	96	3
TAP	54	192	1
TAP	54	192	6
TAP	55	0	3
TAP	55	96	2
TAP	55	96	4
TAP	55	192	5
TAP	55	288	4
STR	55	288	6
SCR	55	288	6	96	240	3
TAP	57	0	4
TAP	57	96	3
TAP	57	96	5
TAP	57	192	2
STR	57	288	1
SCL	57	288	1	96	240	4
TAP	57	288	3
HLD	59	0	2	96
HLD	59	0	3	96
HLD	59	192	4	96
HLD	59	192	5	96
TAP	60	0	2
TAP	60	0	3
TAP	60	96	1
TAP	60	96	4
TAP	60	192	0
TAP	60	192	5
HLD	61	0	4	96
HLD	61	0	5	96
HLD	61	192	2	96
HLD	61	192	3	96
TAP	62	0	4
TAP	62	0	5
TAP	62	96	3
TAP	62	96	6
TAP	62	192	2
TAP	62	192	7
HLD	63	0	0	96
HLD	63	0	1	96
HLD	63	192	6	96
HLD	63	192	7	96
TAP	64	0	0
TAP	64	0	1
TAP	64	96	2
TAP	64	96	7
TAP	64	192	3
TAP	64	192	6
HLD	65	0	6	96
HLD	65	0	7	96
HLD	65	192	0	96
HLD	65	192	1	96
TAP	66	0	6
TAP	66	0	7
TAP	66	96	0
TAP	66	96	5
TAP	66	192	1
TAP	66	192	4
TAP	67	0	1
TAP	67	96	0
TAP	67	192	6
TAP	67	192	7
TAP	67	288	6
TAP	67	288	7
TAP	68	0	5
TAP	68	96	6
TAP	68	192	0
TAP	68	192	7
BRK	68	288	0
BRK	68	288	7
TAP	69	0	1
TAP	69	0	6
TAP	69	96	1
TAP	69	96	6
TAP	69	192	2
TAP	69	192	5
TAP	69	288	2
TAP	69	288	5
TAP	70	0	3
TAP	70	0	4
TAP	70	96	3
TAP	70	96	4
TAP	70	192	3
TAP	70	192	4
TAP	71	0	2
TAP	71	96	3
TAP	71	192	1
TAP	71	192	4
TAP	72	0	5
TAP	72	96	4
TAP	72	192	3
TAP	72	192	6
TAP	73	0	1
TAP	73	96	0
TAP	73	192	2
TAP	73	192	7
TAP	74	0	6
TAP	74	96	7
TAP	74	192	0
TAP	74	192	5
TAP	75	0	6
TAP	75	0	7
TAP	75	96	6
TAP	75	96	7
TAP	75	192	0
TAP	75	192	1
STR	75	288	0
SCL	75	288	0	96	192	5
STR	75	288	1
SCR	75	288	1	96	192	4
TAP	77	0	3
TAP	77	96	2
TAP	77	192	0
TAP	77	192	1
TAP	78	0	4
TAP	78	96	5
TAP	78	192	6
TAP	78	192	7
TAP	79	0	3
TAP	79	96	3
TAP	79	192	2
TAP	79	288	2
TAP	80	0	1
TAP	80	96	0
TAP	80	192	2
TAP	80	192	7
TAP	81	0	4
TAP	81	96	5
TAP	81	192	6
TAP	81	192	7
TAP	82	0	3
TAP	82	96	2
TAP	82	192	0
TAP	82	192	1
TAP	83	0	4
TAP	83	0	5
TAP	83	96	4
TAP	83	96	5
TAP	83	192	2
TAP	83	192	3
STR	83	288	2
SCL	83	288	2	96	192	7
STR	83	288	3
SCR	83	288	3	96	192	6
TAP	85	0	0
TAP	85	96	1
TAP	85	192	2
TAP	85	288	3
TAP	86	0	4
TAP	86	96	5
TAP	86	192	6
STR	86	288	0
SCR	86	288	0	96	240	3
STR	86	288	7
SCL	86	288	7	96	240	4
BRK	88	0	1
BRK	88	0	6

T_REC_TAP	274
T_REC_BRK	9
T_REC_XTP	0
T_REC_HLD	35
T_REC_XHO	0
T_REC_STR	13
T_REC_BST	0
T_REC_XST	0
T_REC_TTP	0
T_REC_THO	0
T_REC_SLD	13
T_REC_ALL	344
T_NUM_TAP	287
T_NUM_BRK	9
T_NUM_HLD	35
T_NUM_SLD	13
T_NUM_ALL	344
T_JUDGE_TAP	296
T_JUDGE_HLD	88
T_JUDGE_SLD	13
T_JUDGE_ALL	397
TTM_EACHPAIRS	89
TTM_SCR_TAP	143500
TTM_SCR_BRK	23400
TTM_SCR_HLD	35000
TTM_SCR_SLD	19500
TTM_SCR_ALL	221400
TTM_SCR_S	213900
TTM_SCR_SS	220500
TTM_RAT_ACV	10040

