VERSION	0.00.00	1.03.00
FES_MODE	0
BPM_DEF	168.000	168.000	168.000	168.000
MET_DEF	4	4
RESOLUTION	384
CLK_DEF	384
COMPATIBLE_CODE	MA2

BPM	0	0	168.000

TAP	1	0	0
TAP	3	0	7
TAP	5	0	0
TAP	6	0	0
TAP	7	0	7
TAP	8	0	7
TAP	9	0	0
TAP	9	192	0
TAP	10	0	1
TAP	10	192	1
TAP	11	0	2
TAP	11	192	2
TAP	12	0	3
TAP	12	96	3
TAP	12	192	3
TAP	12	192	4
TAP	13	0	4
TAP	13	192	4
TAP	14	0	5
TAP	14	192	5
TAP	15	0	6
TAP	15	192	6
TAP	16	0	7
TAP	16	96	7
TAP	16	192	0
TAP	16	192	7
HLD	17	0	6	192
TAP	18	0	5
TAP	18	192	5
HLD	19	0	4	192
TAP	20	0	3
TAP	20	192	3
HLD	21	0	2	192
TAP	22	0	1
TAP	22	192	1
HLD	23	0	0	192
TAP	24	0	7
TAP	24	192	7
TAP	25	0	0
TAP	25	96	0
TAP	25	192	0
HLD	26	0	1	192
TAP	27	0	2
TAP	27	96	2
TAP	27	192	2
HLD	28	0	3	192
TAP	29	0	4
TAP	29	96	4
TAP	29	192	4
HLD	30	0	5	192
TAP	31	0	6
TAP	31	96	6
TAP	31	192	6
HLD	32	0	7	192
STR	33	0	0
SI_	33	0	0	96	288	4
STR	35	0	7
SI_	35	0	7	96	288	3
STR	37	0	0
SI_	37	0	0	96	288	5
STR	39	0	7
SI_	39	0	7	96	288	2
STR	41	0	0
SI_	41	0	0	96	288	3
TAP	43	0	7
TAP	43	192	7
TAP	44	0	6
TAP	44	0	7
TAP	44	192	6
TAP	44	192	7
TAP	45	0	0
TAP	45	192	0
TAP	46	0	0
TAP	46	0	1
TAP	46	192	0
TAP	46	192	1
BRK	47	0	7
TAP	47	96	7
TAP	47	192	7
TAP	48	0	6
TAP	48	96	6
TAP	48	192	6
TAP	49	0	5
TAP	49	96	5
TAP	49	192	5
TAP	50	0	4
TAP	50	96	3
TAP	50	192	3
TAP	50	192	4
TAP	51	0	3
TAP	51	96	3
TAP	51	192	3
TAP	52	0	2
TAP	52	96	2
TAP	52	192	2
TAP	53	0	1
TAP	53	96	1
TAP	53	192	1
TAP	54	0	0
TAP	54	96	7
TAP	54	192	0
TAP	54	192	7
TAP	55	0	1
TAP	55	96	1
TAP	55	192	1
TAP	56	0	2
TAP	56	96	2
TAP	56	192	2
TAP	56	192	3
TAP	57	0	4
TAP	57	96	4
TAP	57	192	4
TAP	58	0	5
TAP	58	96	5
TAP	58	192	4
TAP	58	192	5
HLD	59	0	6	192
HLD	59	0	7	192
TAP	60	0	5
TAP	60	96	5
TAP	60	192	5
HLD	61	0	3	192
HLD	61	0	4	192
TAP	62	0	2
TAP	62	96	2
TAP	62	192	2
HLD	63	0	0	192
HLD	63	0	1	192
TAP	64	0	7
TAP	64	96	7
TAP	64	192	7
HLD	65	0	6	192
HLD	65	0	7	192
TAP	66	0	0
TAP	66	96	0
TAP	66	192	0
TAP	67	0	7
TAP	67	96	7
TAP	67	192	7
TAP	68	0	0
TAP	68	96	0
BRK	68	192	0
BRK	68	192	7
TAP	69	0	1
TAP	69	96	1
TAP	69	192	1
TAP	70	0	2
TAP	70	96	2
TAP	70	192	2
TAP	71	0	3
TAP	71	96	3
TAP	71	192	3
TAP	72	0	3
TAP	72	0	4
TAP	72	96	3
TAP	72	96	4
TAP	72	192	3
TAP	72	192	4
TAP	73	0	5
TAP	73	96	5
TAP	73	192	5
TAP	74	0	6
TAP	74	96	6
TAP	74	192	6
TAP	75	0	7
TAP	75	96	7
TAP	75	192	7
TAP	76	0	0
TAP	76	0	7
TAP	76	96	0
TAP	76	96	7
TAP	76	192	0
TAP	76	192	7
TAP	77	0	6
TAP	77	96	6
TAP	77	192	6
TAP	78	0	5
TAP	78	96	5
TAP	78	192	5
TAP	79	0	4
TAP	79	96	4
TAP	79	192	4
TAP	80	0	3
TAP	80	0	4
TAP	80	96	3
TAP	80	96	4
TAP	80	192	3
TAP	80	192	4
TAP	81	0	2
TAP	81	96	2
TAP	81	192	2
TAP	82	0	1
TAP	82	96	1
TAP	82	192	1
TAP	83	0	0
TAP	83	96	0
TAP	83	192	0
TAP	84	0	0
TAP	84	0	7
TAP	84	96	0
TAP	84	96	7
TAP	84	192	0
TAP	84	192	7
TAP	85	0	6
TAP	85	0	7
TAP	85	96	6
TAP	85	96	7
TAP	85	192	6
TAP	85	192	7
TAP	86	0	0
TAP	86	0	1
TAP	86	96	0
TAP	86	96	1
TAP	86	192	0
TAP	86	192	1
TAP	87	0	0
TAP	87	0	7
TAP	87	96	0
TAP	87	96	7
TAP	87	192	0
TAP	87	192	7
BRK	88	0	0
BRK	88	0	7

T_REC_TAP	192
T_REC_BRK	5
T_REC_XTP	0
T_REC_HLD	16
T_REC_XHO	0
T_REC_STR	5
T_REC_BST	0
T_REC_XST	0
T_REC_TTP	0
T_REC_THO	0
T_REC_SLD	5
T_REC_ALL	223
T_NUM_TAP	197
T_NUM_BRK	5
T_NUM_HLD	16
T_NUM_SLD	5
T_NUM_ALL	223
T_JUDGE_TAP	202
T_JUDGE_HLD	64
T_JUDGE_SLD	5
T_JUDGE_ALL	271
TTM_EACHPAIRS	37
TTM_SCR_TAP	98500
TTM_SCR_BRK	13000
TTM_SCR_HLD	16000
TTM_SCR_SLD	7500
TTM_SCR_ALL	135000
TTM_SCR_S	130500
TTM_SCR_SS	134500
TTM_RAT_ACV	10037

