VERSION	0.00.00	1.03.00
FES_MODE	0
BPM_DEF	110.000	110.000	110.000	110.000
MET_DEF	4	4
RESOLUTION	384
CLK_DEF	384
COMPATIBLE_CODE	MA2

BPM	0	0	110.000

STR	1	0	5
SI_	1	0	5	96	48	2
TAP	1	48	2
TAP	1	96	0
TAP	1	144	1
TAP	1	168	1
STR	1	192	2
SI_	1	192	2	96	48	5
HLD	1	240	6	96
STR	2	0	5
SI_	2	0	5	96	48	2
TAP	2	48	2
TAP	2	96	1
TAP	2	144	0
STR	2	192	2
SI_	2	192	2	96	48	5
TAP	2	240	6
TAP	2	288	6
STR	3	0	5
SI_	3	0	5	96	48	2
TAP	3	48	2
TAP	3	96	0
TAP	3	144	1
TAP	3	168	1
STR	3	192	2
SI_	3	192	2	96	48	5
HLD	3	240	6	96
STR	4	0	5
SI_	4	0	5	96	48	2
TAP	4	48	2
TAP	4	96	1
TAP	4	144	0
TAP	4	192	2
TAP	4	240	7
TAP	4	288	7
TAP	4	336	7
STR	5	0	2
SCR	5	0	2	96	48	5
TAP	5	48	6
TAP	5	96	7
TAP	5	120	7
TAP	5	144	6
TAP	5	192	6
TAP	5	216	6
TAP	5	240	5
TAP	5	288	4
TAP	5	288	6
TAP	5	360	5
STR	6	0	5
SCL	6	0	5	96	48	2
TAP	6	48	0
TAP	6	72	0
TAP	6	96	1
TAP	6	144	1
TAP	6	168	1
TAP	6	192	2
TAP	6	240	2
TAP	6	264	2
TAP	6	288	1
TAP	6	288	3
TAP	6	360	0
STR	7	0	0
SI_	7	0	0	96	48	4
TAP	7	48	7
TAP	7	72	7
TAP	7	168	5
STR	7	192	4
SCL	7	192	4	96	48	1
TAP	7	240	6
TAP	7	264	6
TAP	7	360	7
TAP	8	0	7
TAP	8	48	2
TAP	8	72	2
TAP	8	96	3
TAP	8	144	5
TAP	8	168	5
TAP	8	192	4
TAP	8	240	2
TAP	8	264	3
TAP	8	288	1
TAP	8	288	4
TAP	8	360	5
STR	9	0	5
SCL	9	0	5	96	48	2
TAP	9	48	0
TAP	9	72	0
TAP	9	96	1
TAP	9	144	1
TAP	9	168	1
TAP	9	192	2
TAP	9	240	2
TAP	9	264	2
TAP	9	288	1
TAP	9	288	3
TAP	9	360	2
STR	10	0	2
SCR	10	0	2	96	48	5
TAP	10	48	7
TAP	10	72	7
TAP	10	96	6
TAP	10	144	7
TAP	10	168	7
TAP	10	192	6
TAP	10	240	5
TAP	10	264	5
TAP	10	288	4
TAP	10	288	6
TAP	10	360	7
STR	11	0	7
SI_	11	0	7	96	48	4
TAP	11	48	0
TAP	11	72	0
TAP	11	168	2
STR	11	192	3
SV_	11	192	3	96	48	4
TAP	11	240	1
TAP	11	264	1
TAP	11	360	2
TAP	12	0	3
TAP	12	48	5
TAP	12	72	5
TAP	12	96	4
TAP	12	144	2
TAP	12	168	2
TAP	12	192	3
TAP	12	240	5
TAP	12	264	4
TAP	12	288	3
TAP	12	288	6
TAP	12	336	2
STR	13	0	2
SCR	13	0	2	96	48	5
TAP	13	48	6
TAP	13	96	7
TAP	13	144	6
STR	13	192	5
SCL	13	192	5	96	48	2
TAP	13	240	1
TAP	13	288	0
TAP	13	336	1
STR	14	0	2
SCR	14	0	2	96	48	5
TAP	14	48	6
TAP	14	96	7
TAP	14	144	6
STR	14	192	5
SCL	14	192	5	96	48	2
TAP	14	240	1
TAP	14	288	0
TAP	14	336	1
STR	15	0	2
SCR	15	0	2	96	48	5
TAP	15	48	6
TAP	15	96	6
TAP	15	144	7
STR	15	192	5
SCL	15	192	5	96	48	2
TAP	15	240	1
TAP	15	288	1
TAP	15	336	0
STR	16	0	2
SCR	16	0	2	96	48	5
TAP	16	48	6
TAP	16	96	6
TAP	16	144	7
TAP	16	192	5
TAP	16	240	0
TAP	16	288	0
STR	16	288	7
SI_	16	288	7	96	48	4
TAP	16	336	0
TAP	17	0	2
TAP	17	48	2
TAP	17	96	3
STR	17	96	7
SI_	17	96	7	96	48	4
TAP	17	144	2
TAP	17	192	1
TAP	17	240	0
TAP	17	288	1
STR	17	288	7
SI_	17	288	7	96	48	4
TAP	17	312	1
TAP	17	360	2
TAP	18	0	2
TAP	18	48	2
TAP	18	96	3
STR	18	96	7
SI_	18	96	7	96	48	4
TAP	18	144	2
TAP	18	192	1
TAP	18	240	0
TAP	18	288	2
STR	18	288	7
SI_	18	288	7	96	48	4
TAP	18	312	2
TAP	18	360	3
TAP	19	0	3
TAP	19	48	3
TAP	19	72	2
TAP	19	96	1
STR	19	96	7
SI_	19	96	7	96	48	4
TAP	19	168	2
TAP	19	192	2
TAP	19	240	2
TAP	19	264	1
TAP	19	288	0
STR	19	288	7
SI_	19	288	7	96	48	4
TAP	19	360	3
TAP	20	0	3
TAP	20	48	1
TAP	20	72	1
TAP	20	96	0
STR	20	96	7
SI_	20	96	7	96	48	4
TAP	20	144	2
TAP	20	192	3
TAP	20	240	1
TAP	20	264	1
STR	20	288	0
SI_	20	288	0	96	48	3
TAP	20	288	7
TAP	21	0	5
TAP	21	48	5
STR	21	96	0
SI_	21	96	0	96	48	3
TAP	21	96	4
TAP	21	144	5
TAP	21	192	6
TAP	21	240	7
STR	21	288	0
SI_	21	288	0	96	48	3
TAP	21	288	6
TAP	21	312	6
TAP	21	360	5
TAP	22	0	5
TAP	22	48	5
STR	22	96	0
SI_	22	96	0	96	48	3
TAP	22	96	4
TAP	22	144	5
TAP	22	192	6
TAP	22	240	7
STR	22	288	0
SI_	22	288	0	96	48	3
TAP	22	288	5
TAP	22	312	5
TAP	22	360	4
TAP	23	0	4
TAP	23	48	4
TAP	23	72	5
STR	23	96	0
SI_	23	96	0	96	48	3
TAP	23	96	6
TAP	23	168	5
TAP	23	192	5
TAP	23	240	5
TAP	23	264	6
STR	23	288	0
SI_	23	288	0	96	48	3
TAP	23	288	7
TAP	23	360	4
TAP	24	0	4
TAP	24	48	6
TAP	24	72	6
STR	24	96	0
SI_	24	96	0	96	48	3
TAP	24	96	7
TAP	24	144	5
TAP	24	192	4
TAP	24	240	6
TAP	24	264	6
TAP	24	288	0
TAP	24	288	7
TAP	24	336	4
TAP	24	360	3
TAP	25	0	2
STR	25	0	5
SCR	25	0	5	96	96	0
TAP	25	96	3
STR	25	192	2
SCR	25	192	2	96	96	5
TAP	25	288	0
STR	26	0	7
SCR	26	0	7	96	96	2
TAP	26	96	5
STR	26	192	4
SCR	26	192	4	96	96	7
TAP	26	288	2
HLD	27	0	1	144
HLD	27	96	6	48
TAP	27	192	3
TAP	27	192	4
TAP	27	240	3
TAP	27	240	4
BST	27	288	1
SCR	27	288	1	96	48	3
BRK	27	288	6
TAP	27	336	0
TAP	28	0	1
STR	28	0	6
SCL	28	0	6	96	48	4
TAP	28	48	7
STR	28	96	1
SCR	28	96	1	96	48	3
TAP	28	96	6
TAP	28	144	0
TAP	28	192	1
STR	28	192	6
SCL	28	192	6	96	48	4
TAP	28	240	7
STR	28	288	1
SCR	28	288	1	96	48	3
TAP	28	288	6
TAP	28	336	0
TAP	29	0	1
STR	29	0	6
SCL	29	0	6	96	48	4
TAP	29	48	7
STR	29	96	1
SCR	29	96	1	96	48	3
TAP	29	96	6
TAP	29	144	0
TAP	29	192	1
STR	29	192	6
SCL	29	192	6	96	48	4
TAP	29	240	7
TAP	29	288	1
TAP	29	288	6
TAP	29	336	2
TAP	30	0	3
TAP	30	0	4
TAP	30	48	5
TAP	30	96	6
TAP	30	144	7
TAP	30	192	0
TAP	30	192	7
TAP	30	240	1
TAP	30	288	2
TAP	30	336	3
TAP	31	0	4
TAP	31	0	5
TAP	31	48	2
TAP	31	48	3
STR	31	96	0
SUR	31	96	0	96	48	5
STR	31	96	1
SCR	31	96	1	96	48	4
TAP	31	144	6
TAP	31	144	7
TAP	31	288	1
STR	31	288	6
SCL	31	288	6	96	48	4
TAP	31	336	7
STR	32	0	1
SCR	32	0	1	96	48	3
TAP	32	0	6
TAP	32	48	0
TAP	32	96	1
STR	32	96	6
SCL	32	96	6	96	48	4
TAP	32	144	7
STR	32	192	1
SCR	32	192	1	96	48	3
TAP	32	192	6
TAP	32	240	0
TAP	32	288	1
STR	32	288	6
SCL	32	288	6	96	48	4
TAP	32	336	7
STR	33	0	1
SCR	33	0	1	96	48	3
TAP	33	0	6
TAP	33	48	0
TAP	33	96	1
STR	33	96	6
SCL	33	96	6	96	48	4
TAP	33	144	7
STR	33	192	1
SCR	33	192	1	96	48	3
TAP	33	192	6
TAP	33	240	0
TAP	33	288	1
TAP	33	288	6
TAP	33	336	5
TAP	34	0	3
TAP	34	0	4
TAP	34	48	2
TAP	34	96	1
TAP	34	144	0
TAP	34	192	0
TAP	34	192	7
TAP	34	240	6
TAP	34	288	5
TAP	34	336	4
TAP	35	0	2
TAP	35	0	3
TAP	35	48	4
TAP	35	48	5
STR	35	96	6
SCL	35	96	6	96	48	3
STR	35	96	7
SUL	35	96	7	96	48	2
TAP	35	144	0
TAP	35	144	1
TAP	35	288	2
TAP	35	288	5
HLD	36	0	3	192
TAP	36	96	4
TAP	36	192	4
TAP	36	216	3
HLD	36	240	5	144
TAP	36	288	4
HLD	37	0	2	144
TAP	37	96	3
TAP	37	144	3
TAP	37	168	2
TAP	37	192	4
TAP	37	216	3
HLD	37	240	5	144
TAP	37	288	4
TAP	38	0	4
TAP	38	24	5
TAP	38	48	4
TAP	38	72	6
TAP	38	96	3
TAP	38	120	5
TAP	38	144	4
TAP	38	168	6
TAP	38	192	2
TAP	38	216	4
TAP	38	240	3
TAP	38	264	5
TAP	38	288	1
TAP	38	312	3
HLD	38	336	2	48
TAP	39	0	3
TAP	39	24	2
TAP	39	48	3
TAP	39	72	1
TAP	39	96	4
TAP	39	120	2
TAP	39	144	4
TAP	39	168	3
TAP	39	192	5
TAP	39	204	5
TAP	39	216	4
TAP	39	240	6
TAP	39	264	4
TAP	39	288	7
HLD	40	0	6	48
TAP	40	48	7
HLD	40	72	7	48
TAP	40	120	0
HLD	40	144	0	48
TAP	40	192	1
HLD	40	216	1	48
TAP	40	264	0
TAP	40	288	1
TAP	40	312	7
TAP	40	336	0
HLD	40	360	6	72
TAP	41	48	7
HLD	41	72	7	48
TAP	41	120	0
HLD	41	144	0	48
TAP	41	192	1
TAP	41	216	1
TAP	41	240	7
TAP	41	264	7
TAP	41	288	1
TAP	41	304	2
TAP	41	320	3
TAP	41	336	6
TAP	41	352	5
TAP	41	368	4
HLD	42	0	2	192
TAP	42	96	4
TAP	42	144	4
TAP	42	168	5
HLD	42	192	6	192
TAP	42	288	3
TAP	42	336	3
TAP	42	360	2
HLD	43	0	1	96
HLD	43	96	7	96
HLD	43	192	0	96
TAP	43	288	7
TAP	43	336	3
TAP	43	360	4
STR	44	0	2
SCL	44	0	2	96	192	5
TAP	44	0	5
TAP	44	96	4
TAP	44	192	3
TAP	44	288	3
TAP	44	336	3
TAP	45	0	2
STR	45	0	5
SCR	45	0	5	96	192	2
TAP	45	96	3
TAP	45	192	4
TAP	45	240	4
TAP	45	288	3
TAP	45	336	3
HLD	46	0	2	48
HLD	46	0	5	48
TAP	46	96	0
TAP	46	96	7
TAP	46	144	1
TAP	46	144	6
TAP	46	192	3
TAP	46	192	4
TAP	46	240	4
TAP	46	240	6
TAP	46	288	3
TAP	46	288	4
TAP	46	336	1
TAP	46	336	3
TAP	47	0	3
TAP	47	0	4
TAP	47	96	3
TAP	47	96	4
TAP	47	192	3
TAP	47	192	4
TAP	47	240	2
TAP	47	240	5
BST	47	288	1
SCR	47	288	1	96	48	3
BRK	47	288	6
TAP	47	336	0
TAP	48	0	1
STR	48	0	6
SCL	48	0	6	96	48	4
TAP	48	48	7
STR	48	96	1
SCR	48	96	1	96	48	3
TAP	48	96	6
TAP	48	144	0
TAP	48	192	1
STR	48	192	6
SCL	48	192	6	96	48	4
TAP	48	240	7
STR	48	288	2
SCL	48	288	2	96	48	0
TAP	48	288	6
TAP	48	336	3
TAP	49	0	2
STR	49	0	5
SCR	49	0	5	96	48	7
TAP	49	48	4
STR	49	96	2
SCL	49	96	2	96	48	0
TAP	49	96	5
TAP	49	144	3
TAP	49	192	2
STR	49	192	5
SCR	49	192	5	96	48	7
TAP	49	240	4
TAP	49	288	2
TAP	49	288	5
TAP	49	336	3
TAP	50	0	3
TAP	50	0	4
TAP	50	48	5
TAP	50	96	6
TAP	50	144	7
TAP	50	192	0
TAP	50	192	7
TAP	50	240	1
TAP	50	288	2
TAP	50	336	3
TAP	51	0	3
TAP	51	0	4
TAP	51	48	1
TAP	51	48	2
STR	51	96	0
SCR	51	96	0	96	48	3
STR	51	96	7
SUR	51	96	7	96	48	4
TAP	51	144	5
TAP	51	144	6
TAP	51	288	1
STR	51	288	6
SCL	51	288	6	96	48	4
TAP	51	336	7
STR	52	0	1
SCR	52	0	1	96	48	3
TAP	52	0	6
TAP	52	48	0
TAP	52	96	1
STR	52	96	6
SCL	52	96	6	96	48	4
TAP	52	144	7
STR	52	192	1
SCR	52	192	1	96	48	3
TAP	52	192	6
TAP	52	240	0
TAP	52	288	1
STR	52	288	5
SCR	52	288	5	96	48	7
TAP	52	336	4
STR	53	0	2
SCL	53	0	2	96	48	0
TAP	53	0	5
TAP	53	48	3
TAP	53	96	2
STR	53	96	5
SCR	53	96	5	96	48	7
TAP	53	144	4
STR	53	192	2
SCL	53	192	2	96	48	0
TAP	53	192	5
TAP	53	240	3
TAP	53	288	2
TAP	53	288	5
TAP	53	336	4
TAP	54	0	3
TAP	54	0	4
TAP	54	48	2
TAP	54	96	1
TAP	54	144	0
TAP	54	192	0
TAP	54	192	7
TAP	54	240	6
TAP	54	288	5
TAP	54	336	4
TAP	55	0	3
TAP	55	0	4
TAP	55	48	5
TAP	55	48	6
STR	55	96	0
SUL	55	96	0	96	48	3
STR	55	96	7
SCL	55	96	7	96	48	4
TAP	55	144	1
TAP	55	144	2
BRK	55	288	2
BRK	55	288	5
STR	56	0	5
SI_	56	0	5	96	48	0
TAP	56	24	4
TAP	56	48	5
TAP	56	72	4
TAP	56	96	5
STR	56	192	2
SI_	56	192	2	96	48	7
TAP	56	216	3
TAP	56	240	2
TAP	56	264	3
STR	56	288	2
SCR	56	288	2	96	96	6
STR	57	0	6
SCR	57	0	6	96	96	2
STR	57	96	2
SCR	57	96	2	96	96	6
TAP	57	192	6
TAP	57	288	2
STR	58	0	2
SI_	58	0	2	96	48	7
TAP	58	24	3
TAP	58	48	2
TAP	58	72	3
TAP	58	96	2
STR	58	192	5
SI_	58	192	5	96	48	0
TAP	58	216	4
TAP	58	240	5
TAP	58	264	4
TAP	58	288	5
STR	59	0	2
SI_	59	0	2	96	48	5
TAP	59	0	5
TAP	59	48	2
STR	59	96	6
SI_	59	96	6	96	48	1
TAP	59	144	6
TAP	59	192	2
TAP	59	288	1
TAP	59	288	3
STR	60	0	2
SI_	60	0	2	96	48	7
TAP	60	24	3
TAP	60	48	2
TAP	60	72	3
TAP	60	96	2
STR	60	192	5
SI_	60	192	5	96	48	0
TAP	60	216	4
TAP	60	240	5
TAP	60	264	4
STR	60	288	5
SCL	60	288	5	96	96	1
STR	61	0	1
SCL	61	0	1	96	96	5
STR	61	96	5
SCL	61	96	5	96	96	1
TAP	61	192	1
TAP	61	288	5
STR	62	0	5
SI_	62	0	5	96	48	0
TAP	62	24	4
TAP	62	48	5
TAP	62	72	4
TAP	62	96	5
STR	62	192	2
SI_	62	192	2	96	48	7
TAP	62	216	3
TAP	62	240	2
TAP	62	264	3
TAP	62	288	2
TAP	63	0	2
STR	63	0	5
SI_	63	0	5	96	48	2
TAP	63	48	5
STR	63	96	1
SI_	63	96	1	96	48	6
TAP	63	144	1
TAP	63	192	5
TAP	63	288	4
TAP	63	288	6
BRK	64	0	0

T_REC_TAP	493
T_REC_BRK	5
T_REC_XTP	0
T_REC_HLD	23
T_REC_XHO	0
T_REC_STR	100
T_REC_BST	2
T_REC_XST	0
T_REC_TTP	0
T_REC_THO	0
T_REC_SLD	102
T_REC_ALL	725
T_NUM_TAP	593
T_NUM_BRK	7
T_NUM_HLD	23
T_NUM_SLD	102
T_NUM_ALL	725
T_JUDGE_TAP	600
T_JUDGE_HLD	91
T_JUDGE_SLD	102
T_JUDGE_ALL	793
TTM_EACHPAIRS	105
TTM_SCR_TAP	296500
TTM_SCR_BRK	18200
TTM_SCR_HLD	23000
TTM_SCR_SLD	153000
TTM_SCR_ALL	490700
TTM_SCR_S	475300
TTM_SCR_SS	490000
TTM_RAT_ACV	10014

