VERSION	0.00.00	1.03.00
FES_MODE	0
BPM_DEF	110.000	110.000	110.000	110.000
MET_DEF	4	4
RESOLUTION	384
CLK_DEF	384
COMPATIBLE_CODE	MA2

BPM	0	0	110.000

HLD	1	0	5	192
TAP	1	144	4
TAP	1	168	4
HLD	1	192	3	192
HLD	2	0	4	192
TAP	2	192	3
TAP	2	240	3
TAP	2	288	3
TAP	2	288	4
HLD	3	0	2	192
TAP	3	144	3
TAP	3	168	3
HLD	3	192	4	192
HLD	4	0	3	192
TAP	4	192	4
TAP	4	240	4
TAP	4	240	5
TAP	4	288	3
TAP	4	288	4
TAP	4	336	2
TAP	4	336	3
STR	5	0	0
SI_	5	0	0	96	48	3
TAP	5	48	0
STR	5	96	7
SI_	5	96	7	96	48	4
TAP	5	144	7
TAP	5	192	0
TAP	5	240	0
TAP	5	288	0
TAP	5	288	7
STR	6	0	6
SI_	6	0	6	96	48	3
TAP	6	48	6
STR	6	96	7
SI_	6	96	7	96	48	2
TAP	6	144	7
TAP	6	192	6
TAP	6	240	6
TAP	6	288	6
TAP	6	288	7
HLD	7	0	3	96
HLD	7	0	4	96
STR	7	192	5
SI_	7	192	5	96	48	2
STR	7	192	6
SI_	7	192	6	96	48	1
TAP	7	240	5
TAP	7	240	6
TAP	8	0	1
TAP	8	0	2
TAP	8	48	1
TAP	8	48	2
TAP	8	96	0
TAP	8	96	3
TAP	8	144	0
TAP	8	144	3
TAP	8	192	4
TAP	8	192	7
TAP	8	240	4
TAP	8	240	7
TAP	8	288	5
TAP	8	288	6
STR	9	0	7
SI_	9	0	7	96	48	4
TAP	9	48	7
STR	9	96	0
SI_	9	96	0	96	48	3
TAP	9	144	0
TAP	9	192	7
TAP	9	240	7
TAP	9	288	0
TAP	9	288	7
STR	10	0	1
SI_	10	0	1	96	48	4
TAP	10	48	1
STR	10	96	0
SI_	10	96	0	96	48	5
TAP	10	144	0
TAP	10	192	1
TAP	10	240	1
TAP	10	288	0
TAP	10	288	1
HLD	11	0	3	96
HLD	11	0	4	96
STR	11	192	1
SI_	11	192	1	96	48	6
STR	11	192	2
SI_	11	192	2	96	48	5
TAP	11	240	1
TAP	11	240	2
TAP	12	0	5
TAP	12	0	6
TAP	12	48	5
TAP	12	48	6
TAP	12	96	4
TAP	12	96	7
TAP	12	144	4
TAP	12	144	7
TAP	12	192	0
TAP	12	192	3
TAP	12	240	0
TAP	12	240	3
TAP	12	288	1
TAP	12	288	2
STR	12	336	4
SCR	12	336	4	96	192	3
TAP	13	0	4
STR	13	336	3
SCL	13	336	3	96	192	4
TAP	14	0	3
STR	14	336	4
SCR	14	336	4	96	192	3
TAP	15	0	4
TAP	15	336	3
HLD	16	0	3	96
HLD	16	96	4	96
TAP	16	192	3
TAP	16	240	2
TAP	16	240	3
TAP	16	288	3
TAP	16	288	4
TAP	16	336	4
TAP	16	336	5
STR	17	0	6
SI_	17	0	6	96	48	1
TAP	17	48	6
STR	17	96	2
SI_	17	96	2	96	48	5
TAP	17	144	2
TAP	17	192	6
TAP	17	240	6
TAP	17	288	2
TAP	17	288	6
STR	18	0	1
SI_	18	0	1	96	48	6
TAP	18	48	1
STR	18	96	5
SI_	18	96	5	96	48	2
TAP	18	144	5
TAP	18	192	1
TAP	18	240	1
TAP	18	288	1
TAP	18	288	5
HLD	19	0	4	96
HLD	19	0	7	96
HLD	19	192	0	96
HLD	19	192	3	96
STR	20	0	1
SI_	20	0	1	96	24	3
TAP	20	48	1
STR	20	96	7
SI_	20	96	7	96	24	5
TAP	20	144	7
STR	20	192	0
SI_	20	192	0	96	48	4
TAP	20	240	0
TAP	20	288	7
STR	21	0	5
SI_	21	0	5	96	48	2
TAP	21	48	5
STR	21	96	1
SI_	21	96	1	96	48	6
TAP	21	144	1
TAP	21	192	5
TAP	21	240	5
TAP	21	288	1
TAP	21	288	5
STR	22	0	2
SI_	22	0	2	96	48	5
TAP	22	48	2
STR	22	96	6
SI_	22	96	6	96	48	1
TAP	22	144	6
TAP	22	192	2
TAP	22	240	2
TAP	22	288	2
TAP	22	288	6
HLD	23	0	0	96
HLD	23	0	3	96
HLD	23	192	4	96
HLD	23	192	7	96
STR	24	0	6
SI_	24	0	6	96	24	4
TAP	24	48	6
STR	24	96	0
SI_	24	96	0	96	24	2
TAP	24	144	0
STR	24	192	7
SI_	24	192	7	96	48	3
TAP	24	240	7
TAP	24	288	0
STR	25	0	1
SCR	25	0	1	96	192	4
STR	25	0	5
SCR	25	0	5	96	192	0
STR	26	0	2
SCL	26	0	2	96	192	7
STR	26	0	6
SCL	26	0	6	96	192	3
TAP	27	0	1
TAP	27	0	5
TAP	27	48	1
TAP	27	48	5
TAP	27	96	2
TAP	27	96	6
TAP	27	144	2
TAP	27	144	6
TAP	27	192	3
TAP	27	192	7
BRK	27	288	0
STR	28	0	7
SI_	28	0	7	96	48	4
TAP	28	48	7
STR	28	96	3
SI_	28	96	3	96	48	0
TAP	28	144	3
STR	28	192	6
SI_	28	192	6	96	48	1
TAP	28	240	6
STR	28	288	2
SI_	28	288	2	96	48	5
TAP	28	336	2
STR	29	0	7
SI_	29	0	7	96	48	4
TAP	29	48	7
STR	29	96	3
SI_	29	96	3	96	48	0
TAP	29	144	3
STR	29	192	6
SI_	29	192	6	96	48	1
TAP	29	240	6
TAP	29	288	2
TAP	29	336	2
HLD	30	0	2	192
TAP	30	96	3
TAP	30	144	4
HLD	30	192	5	192
TAP	30	288	4
TAP	30	336	3
HLD	31	0	2	96
TAP	31	48	4
HLD	31	96	5	96
TAP	31	144	3
TAP	31	192	2
TAP	31	288	7
STR	32	0	0
SI_	32	0	0	96	48	3
TAP	32	48	0
STR	32	96	4
SI_	32	96	4	96	48	7
TAP	32	144	4
STR	32	192	1
SI_	32	192	1	96	48	6
TAP	32	240	1
STR	32	288	5
SI_	32	288	5	96	48	2
TAP	32	336	5
STR	33	0	0
SI_	33	0	0	96	48	3
TAP	33	48	0
STR	33	96	4
SI_	33	96	4	96	48	7
TAP	33	144	4
STR	33	192	1
SI_	33	192	1	96	48	6
TAP	33	240	1
TAP	33	288	5
TAP	33	336	5
HLD	34	0	5	192
TAP	34	96	4
TAP	34	144	3
HLD	34	192	2	192
TAP	34	288	3
TAP	34	336	4
HLD	35	0	5	96
TAP	35	48	3
HLD	35	96	2	96
TAP	35	144	4
TAP	35	192	5
BRK	35	288	1
BRK	35	288	6
STR	36	0	2
SCL	36	0	2	96	192	5
TAP	36	0	4
TAP	36	96	4
TAP	36	192	3
TAP	36	288	3
TAP	37	0	3
STR	37	0	5
SCR	37	0	5	96	192	2
TAP	37	96	3
TAP	37	192	4
TAP	37	288	4
STR	38	0	2
SCL	38	0	2	96	192	5
TAP	38	0	5
TAP	38	96	4
TAP	38	192	3
TAP	38	288	2
TAP	39	0	2
STR	39	0	5
SCR	39	0	5	96	192	2
TAP	39	96	3
TAP	39	192	4
TAP	39	288	5
TAP	40	0	0
STR	40	0	6
SCL	40	0	6	96	192	1
TAP	40	96	0
TAP	40	192	7
TAP	40	288	7
STR	41	0	1
SCR	41	0	1	96	192	6
TAP	41	0	7
TAP	41	96	7
TAP	41	192	0
TAP	41	288	0
TAP	42	0	1
STR	42	0	6
SCL	42	0	6	96	192	1
TAP	42	96	0
TAP	42	192	7
TAP	42	288	6
TAP	43	0	0
TAP	43	0	7
TAP	43	96	1
TAP	43	96	6
TAP	43	192	2
TAP	43	192	5
TAP	43	288	3
TAP	43	288	4
HLD	44	0	3	96
STR	44	0	4
SI_	44	0	4	96	192	7
TAP	44	192	3
TAP	44	240	3
TAP	44	288	3
STR	45	0	3
SI_	45	0	3	96	192	0
HLD	45	0	4	96
TAP	45	192	4
TAP	45	240	4
TAP	45	288	4
TAP	46	0	3
TAP	46	0	7
TAP	46	96	2
TAP	46	192	0
TAP	46	192	4
TAP	46	288	5
TAP	47	0	3
TAP	47	0	7
TAP	47	96	2
TAP	47	192	1
TAP	47	192	6
BRK	47	288	7
STR	48	0	1
SI_	48	0	1	96	48	4
TAP	48	48	1
STR	48	96	5
SI_	48	96	5	96	48	0
TAP	48	144	5
STR	48	192	2
SI_	48	192	2	96	48	7
TAP	48	240	2
STR	48	288	6
SI_	48	288	6	96	48	3
TAP	48	336	6
STR	49	0	1
SI_	49	0	1	96	48	4
TAP	49	48	1
STR	49	96	5
SI_	49	96	5	96	48	0
TAP	49	144	5
STR	49	192	2
SI_	49	192	2	96	48	7
TAP	49	240	2
TAP	49	288	6
TAP	49	336	6
HLD	50	0	6	192
TAP	50	96	7
TAP	50	144	0
HLD	50	192	1	192
TAP	50	288	0
TAP	50	336	7
HLD	51	0	6	96
TAP	51	48	0
HLD	51	96	1	96
TAP	51	144	7
TAP	51	192	6
TAP	51	288	0
STR	52	0	6
SI_	52	0	6	96	48	3
TAP	52	48	6
STR	52	96	2
SI_	52	96	2	96	48	7
TAP	52	144	2
STR	52	192	5
SI_	52	192	5	96	48	0
TAP	52	240	5
STR	52	288	1
SI_	52	288	1	96	48	4
TAP	52	336	1
STR	53	0	6
SI_	53	0	6	96	48	3
TAP	53	48	6
STR	53	96	2
SI_	53	96	2	96	48	7
TAP	53	144	2
STR	53	192	5
SI_	53	192	5	96	48	0
TAP	53	240	5
TAP	53	288	1
TAP	53	336	1
HLD	54	0	1	192
TAP	54	96	0
TAP	54	144	7
HLD	54	192	6	192
TAP	54	288	7
TAP	54	336	0
HLD	55	0	1	96
TAP	55	48	7
HLD	55	96	6	96
TAP	55	144	0
TAP	55	192	1
TAP	55	288	2
TAP	55	288	5
STR	56	0	0
SI_	56	0	0	96	48	3
TAP	56	24	7
TAP	56	48	0
TAP	56	72	7
TAP	56	96	0
STR	56	192	0
SI_	56	192	0	96	48	4
TAP	56	216	7
TAP	56	240	0
TAP	56	264	7
TAP	56	288	0
TAP	57	0	4
TAP	57	0	5
TAP	57	96	2
TAP	57	96	3
TAP	57	192	4
TAP	57	192	6
TAP	57	288	1
TAP	57	288	3
STR	58	0	7
SI_	58	0	7	96	48	4
TAP	58	24	0
TAP	58	48	7
TAP	58	72	0
TAP	58	96	7
STR	58	192	7
SI_	58	192	7	96	48	3
TAP	58	216	0
TAP	58	240	7
TAP	58	264	0
TAP	58	288	7
TAP	59	0	2
TAP	59	0	3
TAP	59	48	2
TAP	59	48	3
TAP	59	96	0
TAP	59	96	1
TAP	59	144	0
TAP	59	144	1
TAP	59	192	3
TAP	59	192	6
TAP	59	288	3
TAP	59	288	4
STR	60	0	1
SI_	60	0	1	96	24	3
TAP	60	24	0
TAP	60	48	1
TAP	60	72	0
TAP	60	96	1
STR	60	192	1
SI_	60	192	1	96	48	4
TAP	60	216	0
TAP	60	240	1
TAP	60	264	0
TAP	60	288	1
TAP	61	0	4
TAP	61	0	5
TAP	61	96	2
TAP	61	96	3
TAP	61	192	4
TAP	61	192	6
TAP	61	288	1
TAP	61	288	3
STR	62	0	6
SI_	62	0	6	96	24	4
TAP	62	24	7
TAP	62	48	6
TAP	62	72	7
TAP	62	96	6
STR	62	192	6
SI_	62	192	6	96	48	3
TAP	62	216	7
TAP	62	240	6
TAP	62	264	7
TAP	62	288	6
TAP	63	0	2
TAP	63	0	3
TAP	63	48	2
TAP	63	48	3
TAP	63	96	0
TAP	63	96	1
TAP	63	144	0
TAP	63	144	1
TAP	63	192	3
TAP	63	192	6
TAP	63	288	3
TAP	63	288	4
BRK	64	0	7

T_REC_TAP	317
T_REC_BRK	5
T_REC_XTP	0
T_REC_HLD	38
T_REC_XHO	0
T_REC_STR	78
T_REC_BST	0
T_REC_XST	0
T_REC_TTP	0
T_REC_THO	0
T_REC_SLD	78
T_REC_ALL	516
T_NUM_TAP	395
T_NUM_BRK	5
T_NUM_HLD	38
T_NUM_SLD	78
T_NUM_ALL	516
T_JUDGE_TAP	400
T_JUDGE_HLD	208
T_JUDGE_SLD	78
T_JUDGE_ALL	686
TTM_EACHPAIRS	85
TTM_SCR_TAP	197500
TTM_SCR_BRK	13000
TTM_SCR_HLD	38000
TTM_SCR_SLD	117000
TTM_SCR_ALL	365500
TTM_SCR_S	354050
TTM_SCR_SS	365000
TTM_RAT_ACV	10013

