VERSION	0.00.00	1.03.00
FES_MODE	0
BPM_DEF	110.000	110.000	110.000	110.000
MET_DEF	4	4
RESOLUTION	384
CLK_DEF	384
COMPATIBLE_CODE	MA2

BPM	0	0	110.000

HLD	1	0	3	192
TAP	1	192	4
HLD	2	0	4	192
TAP	2	192	3
HLD	3	0	2	192
TAP	3	192	3
HLD	4	0	5	192
TAP	4	192	4
TAP	4	288	3
TAP	4	288	4
TAP	5	0	2
TAP	5	96	2
TAP	5	192	3
TAP	5	240	3
TAP	5	288	3
TAP	6	0	5
TAP	6	96	5
TAP	6	192	4
TAP	6	240	4
TAP	6	288	4
HLD	7	0	3	192
TAP	7	96	2
HLD	7	192	4	192
TAP	7	288	5
HLD	8	0	2	192
TAP	8	96	3
TAP	8	192	4
TAP	8	288	3
TAP	8	288	5
TAP	9	0	2
TAP	9	96	2
TAP	9	96	3
TAP	9	192	4
TAP	9	240	4
TAP	9	288	4
TAP	10	0	5
TAP	10	96	4
TAP	10	96	5
TAP	10	192	3
TAP	10	240	3
TAP	10	288	3
HLD	11	0	4	192
TAP	11	96	5
HLD	11	192	3	192
TAP	11	288	2
HLD	12	0	5	192
TAP	12	96	4
TAP	12	192	3
TAP	12	288	2
TAP	12	288	4
HLD	13	0	2	384
TAP	13	96	3
TAP	13	192	4
TAP	13	288	5
HLD	14	0	5	384
TAP	14	96	4
TAP	14	192	3
TAP	14	288	2
HLD	15	0	2	192
TAP	15	96	3
HLD	15	192	5	192
TAP	15	288	4
STR	16	0	2
SCL	16	0	2	96	96	5
TAP	16	288	1
TAP	16	288	6
TAP	17	0	2
TAP	17	0	3
TAP	17	96	2
TAP	17	96	3
TAP	17	192	4
TAP	17	240	4
TAP	17	288	3
TAP	17	288	4
TAP	18	0	4
TAP	18	0	5
TAP	18	96	4
TAP	18	96	5
TAP	18	192	3
TAP	18	240	3
TAP	18	288	3
TAP	18	288	4
HLD	19	0	2	192
TAP	19	96	1
HLD	19	192	4	192
TAP	19	288	5
HLD	20	0	2	96
HLD	20	96	3	96
TAP	20	192	4
TAP	20	288	4
TAP	20	288	5
TAP	21	0	3
TAP	21	0	4
TAP	21	96	4
TAP	21	96	5
TAP	21	192	6
TAP	21	240	6
TAP	21	288	4
TAP	21	288	6
TAP	22	0	3
TAP	22	0	4
TAP	22	96	2
TAP	22	96	3
TAP	22	192	1
TAP	22	240	1
TAP	22	288	1
TAP	22	288	3
HLD	23	0	5	192
TAP	23	96	6
HLD	23	192	3	192
TAP	23	288	2
HLD	24	0	5	96
STR	24	96	4
SCR	24	96	4	96	96	1
HLD	25	0	2	192
TAP	25	144	3
HLD	25	192	3	192
HLD	26	0	4	192
TAP	26	144	5
HLD	26	192	5	192
STR	27	0	6
SCR	27	0	6	96	96	3
BRK	27	288	1
BRK	27	288	6
TAP	28	0	0
TAP	28	0	1
TAP	28	48	2
TAP	28	96	2
TAP	28	96	3
TAP	28	144	4
TAP	28	192	4
TAP	28	192	5
TAP	28	240	6
TAP	28	288	6
TAP	28	288	7
TAP	29	0	6
TAP	29	0	7
TAP	29	48	5
TAP	29	96	4
TAP	29	96	5
TAP	29	144	3
TAP	29	192	2
TAP	29	192	3
TAP	29	240	1
TAP	29	288	0
TAP	29	288	1
TAP	30	0	6
TAP	30	0	7
TAP	30	96	3
TAP	30	96	4
TAP	30	192	0
TAP	30	192	1
TAP	30	288	3
TAP	30	288	4
TAP	31	0	6
TAP	31	0	7
TAP	31	48	6
TAP	31	48	7
TAP	31	96	0
TAP	31	96	5
TAP	31	144	0
TAP	31	144	5
STR	31	192	1
SI_	31	192	1	96	48	4
TAP	31	192	4
TAP	32	0	6
TAP	32	0	7
TAP	32	48	5
TAP	32	96	4
TAP	32	96	5
TAP	32	144	3
TAP	32	192	2
TAP	32	192	3
TAP	32	240	1
TAP	32	288	0
TAP	32	288	1
TAP	33	0	0
TAP	33	0	1
TAP	33	48	2
TAP	33	96	2
TAP	33	96	3
TAP	33	144	4
TAP	33	192	4
TAP	33	192	5
TAP	33	240	6
TAP	33	288	6
TAP	33	288	7
TAP	34	0	0
TAP	34	0	1
TAP	34	96	3
TAP	34	96	4
TAP	34	192	6
TAP	34	192	7
TAP	34	288	3
TAP	34	288	4
TAP	35	0	0
TAP	35	0	1
TAP	35	48	0
TAP	35	48	1
TAP	35	96	2
TAP	35	96	7
TAP	35	144	2
TAP	35	144	7
TAP	35	192	3
STR	35	192	6
SI_	35	192	6	96	48	3
STR	36	0	2
SCL	36	0	2	96	192	5
STR	36	0	3
SUL	36	0	3	96	192	4
TAP	37	0	4
TAP	37	0	5
TAP	37	96	2
TAP	37	96	3
TAP	37	192	3
TAP	37	240	3
TAP	37	288	2
TAP	37	288	4
HLD	38	0	5	96
HLD	38	96	4	96
HLD	38	192	3	96
TAP	38	288	2
TAP	39	0	2
TAP	39	0	4
TAP	39	96	3
TAP	39	96	5
TAP	39	192	5
TAP	39	240	4
TAP	39	288	3
TAP	39	288	5
HLD	40	0	2	96
HLD	40	96	3	96
HLD	40	192	4	96
TAP	40	288	5
TAP	41	0	4
TAP	41	0	6
TAP	41	96	1
TAP	41	96	3
TAP	41	192	2
TAP	41	240	3
TAP	41	288	1
TAP	41	288	4
HLD	42	0	5	96
HLD	42	96	4	96
HLD	42	192	3	96
TAP	42	288	2
TAP	43	0	1
TAP	43	0	4
TAP	43	96	3
TAP	43	96	6
STR	43	192	0
SI_	43	192	0	96	48	4
STR	43	192	7
SI_	43	192	7	96	48	3
HLD	44	0	5	192
TAP	44	144	4
HLD	44	192	4	192
HLD	45	0	3	192
TAP	45	144	2
HLD	45	192	2	192
STR	46	0	1
SCL	46	0	1	96	96	4
TAP	46	288	2
STR	47	0	2
SCR	47	0	2	96	96	7
BRK	47	288	1
BRK	47	288	6
TAP	48	0	2
TAP	48	0	3
TAP	48	48	1
TAP	48	96	0
TAP	48	96	1
TAP	48	144	7
TAP	48	192	6
TAP	48	192	7
TAP	48	240	5
TAP	48	288	4
TAP	48	288	5
TAP	49	0	4
TAP	49	0	5
TAP	49	48	6
TAP	49	96	6
TAP	49	96	7
TAP	49	144	0
TAP	49	192	0
TAP	49	192	1
TAP	49	240	2
TAP	49	288	2
TAP	49	288	3
TAP	50	0	4
TAP	50	0	6
TAP	50	96	0
TAP	50	96	2
TAP	50	192	1
TAP	50	192	3
TAP	50	288	5
TAP	50	288	7
TAP	51	0	4
TAP	51	0	5
TAP	51	48	4
TAP	51	48	5
TAP	51	96	3
TAP	51	96	6
TAP	51	144	3
TAP	51	144	6
TAP	51	192	2
STR	51	192	7
SI_	51	192	7	96	48	3
TAP	52	0	4
TAP	52	0	5
TAP	52	48	6
TAP	52	96	6
TAP	52	96	7
TAP	52	144	0
TAP	52	192	0
TAP	52	192	1
TAP	52	240	2
TAP	52	288	2
TAP	52	288	3
TAP	53	0	2
TAP	53	0	3
TAP	53	48	1
TAP	53	96	0
TAP	53	96	1
TAP	53	144	7
TAP	53	192	6
TAP	53	192	7
TAP	53	240	5
TAP	53	288	4
TAP	53	288	5
TAP	54	0	1
TAP	54	0	3
TAP	54	96	5
TAP	54	96	7
TAP	54	192	4
TAP	54	192	6
TAP	54	288	0
TAP	54	288	2
TAP	55	0	2
TAP	55	0	3
TAP	55	48	2
TAP	55	48	3
TAP	55	96	1
TAP	55	96	4
TAP	55	144	1
TAP	55	144	4
STR	55	192	0
SI_	55	192	0	96	48	4
TAP	55	192	5
BRK	55	288	6
STR	56	0	6
SI_	56	0	6	96	48	3
STR	56	0	7
SI_	56	0	7	96	48	2
TAP	56	48	6
TAP	56	48	7
STR	56	192	0
SI_	56	192	0	96	48	5
STR	56	192	1
SI_	56	192	1	96	48	4
TAP	56	240	0
TAP	56	240	1
TAP	57	0	6
HLD	57	48	6	72
HLD	57	120	5	72
HLD	57	192	4	96
TAP	57	288	3
STR	58	0	0
SI_	58	0	0	96	48	5
STR	58	0	1
SI_	58	0	1	96	48	4
TAP	58	48	0
TAP	58	48	1
STR	58	192	6
SI_	58	192	6	96	48	3
STR	58	192	7
SI_	58	192	7	96	48	2
TAP	58	240	6
TAP	58	240	7
TAP	59	0	0
TAP	59	0	1
TAP	59	96	6
TAP	59	96	7
STR	59	192	4
SI_	59	192	4	96	48	0
STR	59	192	5
SI_	59	192	5	96	48	0
STR	60	0	2
SI_	60	0	2	96	48	7
STR	60	0	3
SI_	60	0	3	96	48	6
TAP	60	48	2
TAP	60	48	3
STR	60	192	4
SI_	60	192	4	96	48	1
STR	60	192	5
SI_	60	192	5	96	48	0
TAP	60	240	4
TAP	60	240	5
TAP	61	0	2
HLD	61	48	2	72
HLD	61	120	1	72
HLD	61	192	0	96
TAP	61	288	7
STR	62	0	4
SI_	62	0	4	96	48	1
STR	62	0	5
SI_	62	0	5	96	48	0
TAP	62	48	4
TAP	62	48	5
STR	62	192	2
SI_	62	192	2	96	48	7
STR	62	192	3
SI_	62	192	3	96	48	6
TAP	62	240	2
TAP	62	240	3
TAP	63	0	4
TAP	63	0	5
TAP	63	96	2
TAP	63	96	3
STR	63	192	0
SI_	63	192	0	96	48	4
STR	63	192	1
SI_	63	192	1	96	48	4
BRK	64	0	1
BRK	64	0	6

T_REC_TAP	309
T_REC_BRK	7
T_REC_XTP	0
T_REC_HLD	44
T_REC_XHO	0
T_REC_STR	33
T_REC_BST	0
T_REC_XST	0
T_REC_TTP	0
T_REC_THO	0
T_REC_SLD	33
T_REC_ALL	426
T_NUM_TAP	342
T_NUM_BRK	7
T_NUM_HLD	44
T_NUM_SLD	33
T_NUM_ALL	426
T_JUDGE_TAP	349
T_JUDGE_HLD	292
T_JUDGE_SLD	33
T_JUDGE_ALL	674
TTM_EACHPAIRS	125
TTM_SCR_TAP	171000
TTM_SCR_BRK	18200
TTM_SCR_HLD	44000
TTM_SCR_SLD	49500
TTM_SCR_ALL	282700
TTM_SCR_S	273550
TTM_SCR_SS	282000
TTM_RAT_ACV	10024

