VERSION	0.00.00	1.03.00
FES_MODE	0
BPM_DEF	110.000	110.000	110.000	110.000
MET_DEF	4	4
RESOLUTION	384
CLK_DEF	384
COMPATIBLE_CODE	MA2

BPM	0	0	110.000

TAP	1	0	5
TAP	1	96	4
TAP	1	96	5
TAP	1	288	4
TAP	1	288	5
TAP	2	0	2
TAP	2	96	2
TAP	2	96	3
TAP	2	288	2
TAP	2	288	3
TAP	3	0	4
TAP	3	96	3
TAP	3	96	4
STR	3	288	3
SI_	3	288	3	96	192	0
STR	3	288	4
SI_	3	288	4	96	192	7
TAP	4	288	1
TAP	4	288	6
TAP	5	0	4
TAP	5	96	5
TAP	5	192	4
TAP	5	192	5
TAP	6	0	3
TAP	6	96	2
TAP	6	192	2
TAP	6	192	3
HLD	7	0	6	96
HLD	7	0	7	96
HLD	7	192	0	96
HLD	7	192	1	96
HLD	8	0	0	96
HLD	8	0	7	96
TAP	8	192	1
TAP	8	192	6
TAP	8	288	1
TAP	8	288	6
TAP	9	0	0
TAP	9	96	1
TAP	9	192	0
TAP	9	192	1
TAP	10	0	7
TAP	10	96	6
TAP	10	192	6
TAP	10	192	7
HLD	11	0	1	96
HLD	11	0	3	96
HLD	11	192	4	96
HLD	11	192	6	96
TAP	12	0	3
TAP	12	96	4
TAP	12	192	2
TAP	12	192	5
TAP	12	288	1
STR	12	288	6
SCR	12	288	6	96	288	3
TAP	14	0	2
TAP	14	96	2
TAP	14	192	2
TAP	14	192	3
TAP	15	0	5
TAP	15	96	5
TAP	15	192	4
TAP	15	192	5
TAP	16	0	3
TAP	16	96	3
TAP	16	96	4
TAP	16	192	2
TAP	16	192	5
TAP	17	0	2
TAP	17	96	3
TAP	17	192	1
TAP	17	192	4
TAP	18	0	5
TAP	18	96	4
TAP	18	192	3
TAP	18	192	6
HLD	19	0	0	96
HLD	19	0	1	96
HLD	19	192	6	96
HLD	19	192	7	96
HLD	20	0	0	96
HLD	20	0	7	96
TAP	20	192	1
TAP	20	192	6
TAP	20	288	2
TAP	20	288	5
TAP	21	0	4
TAP	21	96	5
TAP	21	192	6
TAP	21	192	7
TAP	22	0	3
TAP	22	96	2
TAP	22	192	0
TAP	22	192	1
HLD	23	0	4	96
HLD	23	0	6	96
HLD	23	192	1	96
HLD	23	192	3	96
TAP	24	0	5
TAP	24	96	6
TAP	24	96	7
TAP	24	192	2
TAP	24	288	0
TAP	24	288	1
HLD	25	0	2	192
TAP	25	192	3
HLD	26	0	5	192
TAP	26	192	4
TAP	27	0	3
TAP	27	96	3
TAP	27	96	4
BRK	27	192	2
BRK	27	192	5
HLD	28	0	6	96
TAP	28	96	7
TAP	28	192	6
TAP	28	192	7
TAP	28	288	0
TAP	28	288	5
HLD	29	0	1	96
TAP	29	96	0
TAP	29	192	2
TAP	29	192	7
TAP	30	0	2
TAP	30	96	2
TAP	30	96	3
TAP	30	192	5
TAP	30	288	4
TAP	30	288	5
TAP	31	0	2
TAP	31	0	3
TAP	31	96	4
TAP	31	96	5
TAP	31	192	1
TAP	31	192	3
HLD	32	0	1	96
TAP	32	96	0
TAP	32	192	0
TAP	32	192	1
TAP	32	288	2
TAP	32	288	7
HLD	33	0	6	96
TAP	33	96	7
TAP	33	192	0
TAP	33	192	5
TAP	34	0	5
TAP	34	96	4
TAP	34	96	5
TAP	34	192	2
TAP	34	288	2
TAP	34	288	3
TAP	35	0	4
TAP	35	0	5
TAP	35	96	2
TAP	35	96	3
TAP	35	192	4
TAP	35	192	6
TAP	36	0	3
TAP	36	96	2
TAP	36	192	0
TAP	36	192	1
TAP	36	288	0
TAP	36	288	1
TAP	37	0	7
TAP	37	96	6
TAP	37	192	0
TAP	37	192	5
TAP	38	0	4
TAP	38	96	5
TAP	38	192	6
TAP	38	192	7
TAP	38	288	6
TAP	38	288	7
TAP	39	0	0
TAP	39	96	1
TAP	39	192	2
TAP	39	192	7
TAP	40	0	7
TAP	40	96	6
TAP	40	192	4
TAP	40	192	5
TAP	40	288	4
TAP	40	288	5
TAP	41	0	3
TAP	41	96	2
TAP	41	192	1
TAP	41	192	4
TAP	42	0	0
TAP	42	96	1
TAP	42	192	2
TAP	42	192	3
TAP	42	288	2
TAP	42	288	3
TAP	43	0	4
TAP	43	96	3
TAP	43	96	4
TAP	43	192	2
TAP	43	192	5
HLD	44	0	6	192
TAP	44	192	7
HLD	45	0	1	192
TAP	45	192	0
TAP	46	0	7
TAP	46	96	0
TAP	46	192	7
STR	46	288	1
SLR	46	288	1	96	192	0
STR	46	288	6
SLL	46	288	6	96	192	7
BRK	47	288	1
BRK	47	288	6
HLD	48	0	5	96
TAP	48	96	4
TAP	48	192	6
TAP	48	192	7
TAP	48	288	0
TAP	48	288	5
HLD	49	0	1	96
TAP	49	96	0
TAP	49	192	2
TAP	49	192	7
TAP	50	0	6
TAP	50	96	4
TAP	50	96	5
TAP	50	192	3
TAP	50	288	4
TAP	50	288	5
TAP	51	0	2
TAP	51	0	3
TAP	51	96	4
TAP	51	96	6
TAP	51	192	1
TAP	51	192	3
HLD	52	0	2	96
TAP	52	96	3
TAP	52	192	0
TAP	52	192	1
TAP	52	288	2
TAP	52	288	7
HLD	53	0	6	96
TAP	53	96	7
TAP	53	192	0
TAP	53	192	5
TAP	54	0	1
TAP	54	96	2
TAP	54	96	3
TAP	54	192	4
TAP	54	288	2
TAP	54	288	3
TAP	55	0	4
TAP	55	0	5
TAP	55	96	1
TAP	55	96	3
TAP	55	192	4
TAP	55	192	6
BRK	55	288	2
BRK	55	288	5
HLD	56	0	1	96
TAP	56	96	0
HLD	56	192	6	96
TAP	56	288	7
TAP	57	0	5
TAP	57	96	4
TAP	57	192	3
TAP	57	288	2
TAP	57	288	5
HLD	58	0	6	96
TAP	58	96	7
HLD	58	192	1	96
TAP	58	288	0
TAP	59	0	2
TAP	59	0	3
TAP	59	96	4
TAP	59	96	5
TAP	59	192	3
TAP	59	192	6
HLD	60	0	1	96
TAP	60	96	0
HLD	60	192	6	96
TAP	60	288	7
TAP	61	0	0
TAP	61	0	1
TAP	61	96	2
TAP	61	96	7
TAP	61	192	3
TAP	61	192	6
TAP	61	288	4
TAP	61	288	5
HLD	62	0	6	96
TAP	62	96	7
HLD	62	192	1	96
TAP	62	288	0
TAP	63	0	2
TAP	63	0	3
TAP	63	96	4
TAP	63	96	5
TAP	63	192	1
TAP	63	192	3
BRK	63	288	0
BRK	63	288	7

T_REC_TAP	243
T_REC_BRK	8
T_REC_XTP	0
T_REC_HLD	40
T_REC_XHO	0
T_REC_STR	5
T_REC_BST	0
T_REC_XST	0
T_REC_TTP	0
T_REC_THO	0
T_REC_SLD	5
T_REC_ALL	301
T_NUM_TAP	248
T_NUM_BRK	8
T_NUM_HLD	40
T_NUM_SLD	5
T_NUM_ALL	301
T_JUDGE_TAP	256
T_JUDGE_HLD	176
T_JUDGE_SLD	5
T_JUDGE_ALL	437
TTM_EACHPAIRS	99
TTM_SCR_TAP	124000
TTM_SCR_BRK	20800
TTM_SCR_HLD	40000
TTM_SCR_SLD	7500
TTM_SCR_ALL	192300
TTM_SCR_S	185800
TTM_SCR_SS	191500
TTM_RAT_ACV	10041

