VERSION	0.00.00	1.03.00
FES_MODE	0
BPM_DEF	110.000	110.000	110.000	110.000
MET_DEF	4	4
RESOLUTION	384
CLK_DEF	384
COMPATIBLE_CODE	MA2

BPM	0	0	110.000

TAP	1	0	2
TAP	1	192	3
TAP	2	0	4
TAP	2	192	5
TAP	3	0	5
TAP	3	192	4
TAP	4	0	3
TAP	4	192	2
TAP	5	0	1
TAP	5	192	1
TAP	6	0	2
TAP	6	192	2
TAP	7	0	3
TAP	7	192	3
TAP	8	0	4
TAP	8	192	3
TAP	8	192	4
TAP	9	0	5
TAP	9	192	5
TAP	10	0	6
TAP	10	192	6
TAP	11	0	7
TAP	11	192	7
TAP	12	0	0
TAP	12	192	0
TAP	12	192	7
STR	13	0	7
SI_	13	0	7	96	288	4
STR	15	0	0
SI_	15	0	0	96	288	3
TAP	17	0	7
TAP	17	192	7
TAP	18	0	6
TAP	18	96	6
TAP	18	192	6
TAP	19	0	5
TAP	19	192	5
TAP	20	0	4
TAP	20	96	3
TAP	20	192	4
TAP	21	0	3
TAP	21	192	3
TAP	22	0	2
TAP	22	96	2
TAP	22	192	2
TAP	23	0	1
TAP	23	192	1
TAP	24	0	0
TAP	24	96	7
TAP	24	192	0
HLD	25	0	7	192
HLD	26	0	0	192
HLD	27	0	7	192
BRK	28	0	0
TAP	28	96	0
TAP	28	192	0
TAP	29	0	1
TAP	29	96	1
TAP	29	192	1
TAP	30	0	2
TAP	30	96	2
TAP	30	192	2
HLD	31	0	3	192
HLD	31	0	4	192
TAP	32	0	4
TAP	32	96	4
TAP	32	192	4
TAP	33	0	5
TAP	33	96	5
TAP	33	192	5
TAP	34	0	6
TAP	34	96	6
TAP	34	192	6
HLD	35	0	0	192
HLD	35	0	7	192
TAP	36	0	6
TAP	36	96	6
TAP	36	192	6
TAP	37	0	5
TAP	37	96	5
TAP	37	192	5
TAP	38	0	4
TAP	38	96	4
TAP	38	192	4
TAP	39	0	3
TAP	39	96	4
TAP	39	192	3
TAP	40	0	2
TAP	40	96	2
TAP	40	192	2
TAP	41	0	1
TAP	41	96	1
TAP	41	192	1
TAP	42	0	0
TAP	42	96	0
TAP	42	192	0
TAP	43	0	7
TAP	43	96	0
TAP	43	192	7
STR	44	0	0
SI_	44	0	0	96	288	4
STR	46	0	7
SI_	46	0	7	96	288	3
BRK	48	0	0
TAP	48	96	0
TAP	48	192	1
TAP	48	288	1
TAP	49	0	2
TAP	49	96	2
TAP	49	192	2
TAP	49	192	3
TAP	50	0	4
TAP	50	96	4
TAP	50	192	5
TAP	50	288	5
TAP	51	0	6
TAP	51	96	6
TAP	51	192	6
TAP	51	192	7
TAP	52	0	7
TAP	52	96	7
TAP	52	192	6
TAP	52	288	6
TAP	53	0	5
TAP	53	96	5
TAP	53	192	4
TAP	53	192	5
TAP	54	0	3
TAP	54	96	3
TAP	54	192	2
TAP	54	288	2
TAP	55	0	1
TAP	55	96	1
TAP	55	192	0
TAP	55	192	1
TAP	56	0	6
TAP	56	96	6
TAP	56	192	6
TAP	56	192	7
TAP	57	0	1
TAP	57	96	1
TAP	57	192	0
TAP	57	192	1
TAP	58	0	2
TAP	58	96	2
TAP	58	192	2
TAP	58	192	3
TAP	59	0	5
TAP	59	96	5
TAP	59	192	4
TAP	59	192	5
TAP	60	0	6
TAP	60	0	7
TAP	60	96	6
TAP	60	96	7
TAP	60	192	6
TAP	60	192	7
TAP	61	0	4
TAP	61	0	5
TAP	61	96	4
TAP	61	96	5
TAP	61	192	4
TAP	61	192	5
TAP	62	0	2
TAP	62	0	3
TAP	62	96	2
TAP	62	96	3
TAP	62	192	2
TAP	62	192	3
TAP	63	0	0
TAP	63	0	1
TAP	63	96	0
TAP	63	96	1
TAP	63	192	0
TAP	63	192	1
BRK	64	0	0
BRK	64	0	7

T_REC_TAP	158
T_REC_BRK	4
T_REC_XTP	0
T_REC_HLD	7
T_REC_XHO	0
T_REC_STR	4
T_REC_BST	0
T_REC_XST	0
T_REC_TTP	0
T_REC_THO	0
T_REC_SLD	4
T_REC_ALL	177
T_NUM_TAP	162
T_NUM_BRK	4
T_NUM_HLD	7
T_NUM_SLD	4
T_NUM_ALL	177
T_JUDGE_TAP	166
T_JUDGE_HLD	56
T_JUDGE_SLD	4
T_JUDGE_ALL	226
TTM_EACHPAIRS	25
TTM_SCR_TAP	81000
TTM_SCR_BRK	10400
TTM_SCR_HLD	7000
TTM_SCR_SLD	6000
TTM_SCR_ALL	104400
TTM_SCR_S	100900
TTM_SCR_SS	104000
TTM_RAT_ACV	10038

