VERSION	0.00.00	1.03.00
FES_MODE	0
BPM_DEF	222.000	222.000	222.000	204.000
MET_DEF	4	4
RESOLUTION	384
CLK_DEF	384
COMPATIBLE_CODE	MA2

BPM	0	0	222.000
BPM	65	192	204.000
BPM	66	0	222.000
MET	0	0	4	4

HLD	2	0	4	288
TAP	2	96	3
TAP	2	144	3
TAP	2	240	2
TAP	2	288	2
HLD	3	0	3	288
TAP	3	96	4
TAP	3	144	4
TAP	3	240	5
TAP	3	288	5
HLD	4	0	6	288
TAP	4	96	4
TAP	4	144	4
TAP	4	240	5
TAP	4	288	5
HLD	5	0	1	288
TAP	5	96	3
TAP	5	144	3
TAP	5	240	2
TAP	5	288	2
HLD	6	0	5	288
TAP	6	96	6
TAP	6	144	6
TAP	6	240	7
TAP	6	288	7
HLD	7	0	2	288
TAP	7	96	1
TAP	7	144	1
TAP	7	240	0
TAP	7	288	0
HLD	8	0	7	288
TAP	8	96	5
TAP	8	144	5
TAP	8	240	4
TAP	8	288	4
TAP	9	0	0
TAP	9	64	1
TAP	9	128	2
HLD	9	192	3	96
HLD	9	192	7	96
TAP	10	0	1
TAP	10	96	1
STR	10	144	1
SI_	10	144	1	96	48	5
TAP	10	240	7
STR	10	288	7
SI_	10	288	7	96	48	3
TAP	11	0	0
TAP	11	96	0
STR	11	144	0
SI_	11	144	0	96	48	4
TAP	11	240	6
STR	11	288	6
SI_	11	288	6	96	48	2
TAP	12	0	1
TAP	12	96	1
STR	12	144	1
SCR	12	144	1	96	48	4
TAP	12	240	7
STR	12	288	7
SI_	12	288	7	96	48	3
TAP	13	0	0
TAP	13	96	0
STR	13	144	0
SI_	13	144	0	96	48	4
TAP	13	240	5
TAP	13	288	5
TAP	14	0	6
TAP	14	96	6
STR	14	144	6
SI_	14	144	6	96	48	2
TAP	14	240	0
STR	14	288	0
SI_	14	288	0	96	48	4
TAP	15	0	7
TAP	15	96	7
STR	15	144	7
SI_	15	144	7	96	48	3
TAP	15	240	1
STR	15	288	1
SI_	15	288	1	96	48	5
TAP	16	0	6
TAP	16	96	6
STR	16	144	6
SCL	16	144	6	96	48	3
TAP	16	240	0
STR	16	288	0
SI_	16	288	0	96	48	4
TAP	17	0	6
TAP	17	64	5
TAP	17	128	4
TAP	17	192	3
TAP	17	192	7
TAP	17	256	2
TAP	17	256	6
TAP	17	320	1
TAP	17	320	5
BRK	18	0	0
BRK	18	0	4
HLD	18	96	1	96
TAP	18	96	7
TAP	18	144	7
TAP	18	192	7
TAP	18	288	4
TAP	18	288	5
HLD	19	0	2	96
TAP	19	0	3
TAP	19	48	3
TAP	19	96	3
TAP	19	192	1
TAP	19	192	4
TAP	19	288	4
TAP	19	288	5
TAP	20	0	3
TAP	20	0	7
TAP	20	96	0
HLD	20	96	6	96
TAP	20	144	0
TAP	20	192	0
TAP	20	288	2
TAP	20	288	3
TAP	21	0	4
HLD	21	0	5	96
TAP	21	48	4
TAP	21	96	4
TAP	21	192	3
TAP	21	192	6
TAP	21	288	2
TAP	21	288	3
TAP	22	0	3
TAP	22	0	7
HLD	22	96	2	96
TAP	22	96	4
TAP	22	144	4
TAP	22	192	4
TAP	22	288	6
TAP	22	288	7
TAP	23	0	0
HLD	23	0	1	96
TAP	23	48	0
TAP	23	96	0
TAP	23	192	2
TAP	23	192	7
TAP	23	288	6
TAP	23	288	7
TAP	24	0	0
TAP	24	0	4
TAP	24	96	3
HLD	24	96	5	96
TAP	24	144	3
TAP	24	192	3
TAP	24	288	0
TAP	24	288	1
HLD	25	0	6	96
TAP	25	0	7
TAP	25	48	7
TAP	25	96	7
TAP	25	192	0
TAP	25	192	5
TAP	25	288	0
TAP	25	288	1
TAP	26	0	3
TAP	26	0	6
TAP	26	96	1
TAP	26	96	7
TAP	26	144	0
TAP	26	192	7
TAP	26	240	0
TAP	26	288	1
TAP	26	288	7
TAP	27	0	4
TAP	27	0	6
TAP	27	48	5
TAP	27	96	4
TAP	27	144	5
TAP	27	192	4
TAP	27	192	6
TAP	27	288	1
TAP	27	288	4
TAP	28	0	0
TAP	28	0	2
TAP	28	96	0
TAP	28	96	6
TAP	28	144	7
TAP	28	192	0
TAP	28	240	7
TAP	28	288	0
TAP	28	288	6
TAP	29	0	1
TAP	29	0	3
TAP	29	48	2
TAP	29	96	3
TAP	29	144	2
TAP	29	192	1
TAP	29	192	3
TAP	29	288	3
TAP	29	288	6
TAP	30	0	4
TAP	30	0	6
TAP	30	96	2
TAP	30	96	4
TAP	30	144	3
TAP	30	192	4
TAP	30	240	3
TAP	30	288	2
TAP	30	288	4
TAP	31	0	5
TAP	31	0	7
TAP	31	48	6
TAP	31	96	7
TAP	31	144	6
TAP	31	192	5
TAP	31	192	7
TAP	31	288	2
TAP	31	288	7
TAP	32	0	1
TAP	32	0	3
TAP	32	96	3
TAP	32	96	5
TAP	32	144	4
TAP	32	192	3
TAP	32	240	4
TAP	32	288	3
TAP	32	288	5
TAP	33	0	0
TAP	33	0	2
TAP	33	48	1
TAP	33	96	0
TAP	33	144	1
TAP	33	192	0
TAP	33	192	2
TAP	33	288	3
TAP	33	288	4
BRK	34	0	0
BRK	34	0	7
TAP	35	240	3
TAP	35	264	4
TAP	35	288	2
TAP	35	288	5
STR	36	0	1
SI_	36	0	1	96	48	4
TAP	36	96	1
TAP	36	144	0
TAP	36	240	6
TAP	36	288	7
TAP	36	336	6
TAP	37	0	0
STR	37	48	7
SI_	37	48	7	96	48	4
TAP	37	96	0
TAP	37	144	7
TAP	37	240	2
TAP	37	288	3
TAP	37	336	2
STR	38	0	1
SI_	38	0	1	96	48	4
TAP	38	96	1
TAP	38	144	0
TAP	38	240	5
TAP	38	288	4
TAP	38	336	3
TAP	39	0	6
STR	39	48	7
SI_	39	48	7	96	48	3
TAP	39	96	6
TAP	39	144	7
TAP	39	240	5
TAP	39	288	5
TAP	40	0	3
TAP	40	0	4
TAP	40	96	1
TAP	40	96	3
TAP	40	144	1
TAP	40	144	3
TAP	40	240	4
TAP	40	240	6
TAP	40	288	4
TAP	40	288	6
STR	41	0	1
SI_	41	0	1	96	48	4
STR	41	0	5
SI_	41	0	5	96	48	0
BRK	41	192	2
BRK	41	192	6
STR	42	0	7
SI_	42	0	7	96	48	3
TAP	42	96	7
TAP	42	144	0
TAP	42	240	4
TAP	42	288	5
TAP	42	336	6
TAP	43	0	7
STR	43	48	1
SI_	43	48	1	96	48	4
TAP	43	96	7
TAP	43	144	1
TAP	43	240	0
TAP	43	288	0
STR	44	0	6
SI_	44	0	6	96	48	3
TAP	44	96	6
TAP	44	144	7
TAP	44	240	1
TAP	44	288	0
TAP	44	336	1
TAP	45	0	7
STR	45	48	0
SI_	45	48	0	96	48	3
TAP	45	96	7
TAP	45	144	0
TAP	45	240	5
TAP	45	288	4
TAP	45	336	5
STR	46	0	6
SI_	46	0	6	96	48	3
TAP	46	96	6
TAP	46	144	7
TAP	46	240	2
TAP	46	288	3
TAP	46	336	4
TAP	47	0	1
STR	47	48	0
SI_	47	48	0	96	48	4
TAP	47	96	1
TAP	47	144	0
TAP	47	240	2
TAP	47	288	2
TAP	48	0	3
TAP	48	0	4
TAP	48	96	4
TAP	48	96	6
TAP	48	144	4
TAP	48	144	6
TAP	48	240	1
TAP	48	240	3
TAP	48	288	1
TAP	48	288	3
TAP	49	0	0
TAP	49	0	4
TAP	49	64	1
TAP	49	64	5
TAP	49	128	2
TAP	49	128	6
TAP	49	192	3
TAP	49	192	7
HLD	49	256	0	128
HLD	49	256	4	128
TAP	50	192	1
TAP	50	192	7
TAP	51	0	1
TAP	51	0	3
TAP	51	144	2
TAP	51	144	4
TAP	51	192	2
TAP	51	192	4
TAP	51	240	2
TAP	51	240	4
HLD	52	0	0	64
HLD	52	64	1	64
HLD	52	128	2	64
HLD	52	192	3	64
HLD	52	256	4	80
TAP	52	336	7
TAP	52	360	0
HLD	53	0	7	64
HLD	53	64	6	64
HLD	53	128	5	64
HLD	53	192	4	64
HLD	53	256	3	128
TAP	54	0	0
TAP	54	192	1
TAP	54	192	7
TAP	55	0	5
TAP	55	0	7
TAP	55	144	4
TAP	55	144	6
TAP	55	192	4
TAP	55	192	6
TAP	55	240	4
TAP	55	240	6
HLD	56	0	0	64
HLD	56	64	2	64
HLD	56	128	3	64
HLD	56	192	4	64
HLD	56	256	6	80
TAP	56	336	7
TAP	56	360	0
HLD	57	0	7	64
HLD	57	64	5	64
HLD	57	128	4	64
HLD	57	192	3	64
HLD	57	256	1	128
TAP	58	0	2
TAP	58	32	3
TAP	58	64	2
TAP	58	96	5
TAP	58	128	4
TAP	58	160	5
TAP	58	192	2
TAP	58	224	3
TAP	58	256	2
TAP	58	288	5
TAP	58	320	4
TAP	58	352	5
TAP	59	0	2
TAP	59	32	3
TAP	59	64	2
TAP	59	96	5
TAP	59	128	4
TAP	59	160	5
TAP	59	192	2
TAP	59	224	3
TAP	59	256	2
TAP	59	288	5
TAP	59	320	4
TAP	59	352	5
TAP	60	64	1
TAP	60	96	0
TAP	60	128	1
TAP	60	160	6
TAP	60	192	7
TAP	60	224	6
TAP	60	256	1
TAP	60	288	0
TAP	60	320	1
TAP	60	352	6
TAP	61	0	7
TAP	61	32	6
TAP	61	64	1
TAP	61	96	0
TAP	61	128	1
TAP	61	160	6
TAP	61	192	7
TAP	61	224	6
TAP	61	256	1
TAP	61	288	0
TAP	61	320	1
TAP	61	352	6
TAP	62	64	2
TAP	62	96	3
TAP	62	128	1
TAP	62	160	5
TAP	62	192	4
TAP	62	224	6
TAP	62	256	1
TAP	62	288	0
TAP	62	320	2
TAP	62	352	6
TAP	63	0	7
TAP	63	32	5
TAP	63	64	2
TAP	63	96	3
TAP	63	128	0
TAP	63	160	5
TAP	63	192	4
TAP	63	224	7
TAP	63	256	1
TAP	63	288	0
TAP	63	320	2
TAP	63	352	6
STR	64	0	0
SI_	64	0	0	96	48	4
BRK	64	96	0
BST	64	96	6
SI_	64	96	6	96	48	3
BST	64	192	1
SI_	64	192	1	96	48	4
BRK	64	192	6
BRK	64	288	1
BST	64	288	7
SI_	64	288	7	96	48	3
BST	65	0	0
SI_	65	0	0	96	48	4
BRK	65	0	7
BST	65	96	0
SCR	65	96	0	96	48	3
BST	65	96	7
SCL	65	96	7	96	48	4
BRK	65	192	0
BRK	65	192	7
HLD	66	0	2	192
TAP	66	0	4
HLD	66	192	0	192
STR	67	0	3
SCL	67	0	3	96	192	0
TAP	67	96	4
TAP	67	192	5
TAP	68	0	3
HLD	68	0	5	192
HLD	68	192	7	192
STR	69	0	4
SCR	69	0	4	96	192	7
TAP	69	96	3
TAP	69	192	2
STR	70	0	2
SXR	70	0	2	96	480	4
STR	70	0	5
SXL	70	0	5	96	480	3
TAP	71	288	2
TAP	72	0	2
TAP	72	0	3
TAP	72	144	6
STR	72	192	6
SUL	72	192	6	96	144	2
TAP	72	336	1
STR	73	0	1
SUR	73	0	1	96	144	5
TAP	73	144	6
TAP	73	192	6
HLD	74	0	1	192
TAP	74	0	3
HLD	74	192	7	192
STR	75	0	5
SCL	75	0	5	96	192	1
TAP	75	96	6
TAP	75	192	7
TAP	76	0	4
HLD	76	0	6	192
HLD	76	192	0	192
STR	77	0	2
SCR	77	0	2	96	192	6
TAP	77	96	1
TAP	77	192	0
STR	78	0	1
SXL	78	0	1	96	480	7
STR	78	0	6
SXR	78	0	6	96	480	0
TAP	79	288	5
TAP	80	0	4
TAP	80	0	5
TAP	80	144	1
STR	80	192	1
SUR	80	192	1	96	144	5
TAP	80	336	6
STR	81	0	6
SUL	81	0	6	96	144	2
TAP	81	144	1
TAP	81	192	1
TAP	82	96	3
TAP	82	144	3
TAP	82	192	4
STR	82	288	5
SCL	82	288	5	96	96	2
STR	83	0	2
SXL	83	0	2	96	288	5
TAP	83	192	1
TAP	83	288	0
TAP	84	96	4
TAP	84	144	4
TAP	84	192	3
STR	84	288	2
SCR	84	288	2	96	96	5
STR	85	0	5
SXR	85	0	5	96	288	2
TAP	85	192	6
TAP	85	288	7
TAP	86	96	4
TAP	86	192	2
TAP	86	240	3
TAP	86	288	2
TAP	86	336	3
TAP	87	0	2
TAP	87	48	2
TAP	87	144	5
TAP	87	192	4
TAP	87	240	3
TAP	87	240	6
TAP	87	336	1
STR	88	0	0
SSL	88	0	0	96	192	4
TAP	88	0	7
TAP	88	96	5
STR	88	192	4
SSL	88	192	4	96	192	0
TAP	88	288	6
TAP	89	0	7
TAP	89	144	4
TAP	89	192	3
TAP	89	240	2
TAP	89	240	5
TAP	90	96	1
TAP	90	144	1
TAP	90	192	2
TAP	90	288	1
TAP	90	336	1
STR	91	0	1
SCR	91	0	1	96	192	6
TAP	91	96	7
STR	91	192	6
SCL	91	192	6	96	192	1
TAP	91	288	7
TAP	92	96	6
TAP	92	144	6
TAP	92	192	5
TAP	92	288	6
TAP	92	336	6
STR	93	0	6
SCL	93	0	6	96	192	1
TAP	93	96	0
STR	93	192	1
SCR	93	192	1	96	192	6
TAP	93	288	0
TAP	94	96	0
TAP	94	192	5
TAP	94	240	4
TAP	94	288	5
TAP	94	336	4
TAP	95	0	5
TAP	95	96	2
TAP	95	96	3
TAP	95	144	2
TAP	95	144	3
TAP	95	288	3
STR	96	0	3
SUR	96	0	3	96	192	1
STR	96	192	1
SCR	96	192	1	96	192	5
STR	97	0	5
SCR	97	0	5	96	192	3
TAP	97	192	4
TAP	98	0	4
STR	98	0	5
SCR	98	0	5	96	192	2
TAP	98	144	2
TAP	98	288	4
STR	99	0	2
SCL	99	0	2	96	192	5
TAP	99	0	3
TAP	99	96	5
TAP	99	192	4
TAP	99	288	3
TAP	100	0	4
STR	100	0	5
SCR	100	0	5	96	192	2
TAP	100	144	2
TAP	100	288	4
STR	101	0	2
SCL	101	0	2	96	192	5
TAP	101	0	5
TAP	101	96	4
TAP	101	192	3
TAP	102	0	4
STR	102	0	5
SCR	102	0	5	96	192	2
TAP	102	144	2
TAP	102	288	4
STR	103	0	2
SCL	103	0	2	96	192	5
TAP	103	0	3
TAP	103	96	5
TAP	103	192	4
TAP	103	288	3
TAP	104	0	4
STR	104	0	5
SCR	104	0	5	96	192	2
TAP	104	144	2
TAP	104	288	4
TAP	105	0	2
TAP	105	0	5
TAP	105	96	4
TAP	105	192	3
TAP	105	192	4
HLD	106	0	2	96
HLD	106	0	3	96
HLD	106	144	3	96
HLD	106	144	4	96
HLD	106	288	4	96
HLD	106	288	5	96
TAP	107	96	3
TAP	107	96	6
TAP	107	192	3
TAP	107	192	6
HLD	108	0	4	96
HLD	108	0	5	96
HLD	108	144	3	96
HLD	108	144	4	96
HLD	108	288	2	96
HLD	108	288	3	96
TAP	109	96	1
TAP	109	96	4
TAP	109	192	1
TAP	109	192	4
HLD	110	0	0	96
HLD	110	0	7	96
HLD	110	144	1	96
HLD	110	144	2	96
HLD	110	288	3	96
HLD	110	288	4	96
TAP	111	96	2
TAP	111	96	6
TAP	111	192	2
TAP	111	192	6
HLD	112	0	0	96
HLD	112	0	7	96
HLD	112	144	5	96
HLD	112	144	6	96
HLD	112	288	3	96
HLD	112	288	4	96
TAP	113	96	1
TAP	113	96	5
TAP	113	192	1
TAP	113	192	5
HLD	114	0	3	144
HLD	114	144	6	240
HLD	114	288	0	96
TAP	115	96	1
TAP	115	96	5
TAP	115	192	1
TAP	115	192	5
HLD	116	0	4	144
HLD	116	144	1	240
HLD	116	288	7	96
TAP	117	96	2
TAP	117	96	6
TAP	117	192	2
TAP	117	192	6
HLD	118	0	1	144
HLD	118	144	5	240
HLD	118	288	4	96
TAP	119	96	3
TAP	119	96	6
TAP	119	192	3
TAP	119	192	6
HLD	120	0	6	144
HLD	120	144	2	240
HLD	120	288	3	96
TAP	121	96	1
TAP	121	96	4
TAP	121	192	1
TAP	121	192	4
STR	122	0	2
SI_	122	0	2	96	672	5

T_REC_TAP	507
T_REC_BRK	12
T_REC_XTP	0
T_REC_HLD	83
T_REC_XHO	0
T_REC_STR	59
T_REC_BST	6
T_REC_XST	0
T_REC_TTP	0
T_REC_THO	0
T_REC_SLD	65
T_REC_ALL	732
T_NUM_TAP	566
T_NUM_BRK	18
T_NUM_HLD	83
T_NUM_SLD	65
T_NUM_ALL	732
T_JUDGE_TAP	584
T_JUDGE_HLD	230
T_JUDGE_SLD	65
T_JUDGE_ALL	879
TTM_EACHPAIRS	137
TTM_SCR_TAP	283000
TTM_SCR_BRK	46800
TTM_SCR_HLD	83000
TTM_SCR_SLD	97500
TTM_SCR_ALL	510300
TTM_SCR_S	493250
TTM_SCR_SS	508500
TTM_RAT_ACV	10035

