VERSION	0.00.00	1.03.00
FES_MODE	0
BPM_DEF	222.000	222.000	222.000	204.000
MET_DEF	4	4
RESOLUTION	384
CLK_DEF	384
COMPATIBLE_CODE	MA2

BPM	0	0	222.000
BPM	65	192	204.000
BPM	66	0	222.000
MET	0	0	4	4
MET	66	0	4	4

TAP	2	0	3
TAP	2	96	2
TAP	2	192	4
TAP	2	288	5
TAP	3	0	3
TAP	3	96	2
TAP	3	96	3
TAP	3	192	4
TAP	3	288	4
TAP	3	288	5
TAP	4	0	1
TAP	4	96	0
TAP	4	192	6
TAP	4	288	7
TAP	5	0	0
TAP	5	0	1
TAP	5	96	2
TAP	5	96	7
HLD	5	288	3	96
TAP	6	0	4
TAP	6	96	5
TAP	6	192	3
TAP	6	288	2
TAP	7	0	4
TAP	7	96	4
TAP	7	96	5
TAP	7	192	3
TAP	7	288	2
TAP	7	288	3
HLD	8	0	6	96
TAP	8	96	7
HLD	8	192	1	96
STR	8	288	0
SSL	8	288	0	96	240	4
TAP	10	0	3
TAP	10	96	1
TAP	10	192	4
TAP	10	288	6
TAP	11	0	3
TAP	11	96	1
TAP	11	96	3
TAP	11	192	4
TAP	11	288	4
TAP	11	288	6
TAP	12	0	2
TAP	12	96	0
TAP	12	192	5
TAP	12	288	7
TAP	13	0	0
TAP	13	0	1
TAP	13	96	2
TAP	13	96	7
HLD	13	288	3	96
TAP	14	0	4
TAP	14	96	6
TAP	14	192	3
TAP	14	288	1
TAP	15	0	4
TAP	15	96	4
TAP	15	96	6
TAP	15	192	3
TAP	15	288	1
TAP	15	288	3
HLD	16	0	5	96
TAP	16	96	7
HLD	16	192	2	96
TAP	16	288	0
STR	17	0	0
SCR	17	0	0	96	168	3
STR	17	0	7
SCL	17	0	7	96	168	4
BRK	18	0	1
BRK	18	0	6
TAP	18	192	5
TAP	18	288	4
TAP	18	288	5
TAP	19	0	2
TAP	19	96	1
TAP	19	96	3
TAP	19	192	6
TAP	19	192	7
TAP	19	288	0
TAP	19	288	5
TAP	20	0	1
TAP	20	96	0
TAP	20	96	1
TAP	20	192	6
TAP	20	288	6
TAP	20	288	7
TAP	21	0	1
TAP	21	96	0
TAP	21	96	2
TAP	21	192	4
TAP	21	192	5
TAP	21	288	3
TAP	21	288	6
TAP	22	0	5
TAP	22	96	4
TAP	22	96	5
TAP	22	192	2
TAP	22	288	2
TAP	22	288	3
TAP	23	0	5
TAP	23	96	4
TAP	23	96	6
TAP	23	192	0
TAP	23	192	1
TAP	23	288	2
TAP	23	288	7
TAP	24	0	6
TAP	24	96	6
TAP	24	96	7
TAP	24	192	1
TAP	24	288	0
TAP	24	288	1
TAP	25	0	6
TAP	25	96	5
TAP	25	96	7
TAP	25	192	2
TAP	25	192	3
TAP	25	288	1
TAP	25	288	4
TAP	26	0	2
TAP	26	96	1
TAP	26	96	3
TAP	26	192	5
TAP	26	288	4
TAP	26	288	6
TAP	27	0	2
TAP	27	96	2
TAP	27	96	3
TAP	27	192	6
TAP	27	192	7
TAP	27	288	0
TAP	27	288	5
TAP	28	0	1
TAP	28	96	0
TAP	28	96	2
TAP	28	192	6
TAP	28	288	5
TAP	28	288	7
TAP	29	0	1
TAP	29	96	0
TAP	29	96	1
TAP	29	192	4
TAP	29	192	5
TAP	29	288	3
TAP	29	288	6
TAP	30	0	5
TAP	30	96	4
TAP	30	96	6
TAP	30	192	2
TAP	30	288	1
TAP	30	288	3
TAP	31	0	5
TAP	31	96	4
TAP	31	96	5
TAP	31	192	0
TAP	31	192	1
TAP	31	288	2
TAP	31	288	7
TAP	32	0	6
TAP	32	96	5
TAP	32	96	7
TAP	32	192	1
TAP	32	288	0
TAP	32	288	2
TAP	33	0	6
TAP	33	96	6
TAP	33	96	7
TAP	33	192	2
TAP	33	192	3
TAP	33	288	1
TAP	33	288	4
STR	34	0	0
SCR	34	0	0	96	384	7
TAP	34	0	5
TAP	35	288	0
TAP	35	288	7
TAP	36	0	3
TAP	36	96	1
TAP	36	192	4
TAP	36	288	6
STR	37	0	4
SUR	37	0	4	96	192	1
STR	37	0	5
SCR	37	0	5	96	192	0
TAP	38	0	3
TAP	38	96	1
TAP	38	192	4
TAP	38	288	6
TAP	39	0	2
TAP	39	96	1
TAP	39	96	3
TAP	39	192	5
TAP	39	288	4
TAP	39	288	6
STR	40	0	3
SXR	40	0	3	96	192	1
STR	40	0	4
SXL	40	0	4	96	192	6
HLD	41	0	2	96
HLD	41	0	5	96
BRK	41	192	0
BRK	41	192	7
TAP	42	0	7
TAP	42	96	5
TAP	42	192	0
TAP	42	288	2
TAP	43	0	6
TAP	43	96	5
TAP	43	96	7
TAP	43	192	1
TAP	43	288	0
TAP	43	288	2
TAP	44	0	6
TAP	44	96	4
TAP	44	192	1
TAP	44	288	3
STR	45	0	2
SLL	45	0	2	96	192	6
STR	45	0	3
SV_	45	0	3	96	192	5
TAP	46	0	1
TAP	46	96	3
TAP	46	192	6
TAP	46	288	4
TAP	47	0	2
TAP	47	96	3
TAP	47	96	7
TAP	47	192	5
TAP	47	288	0
TAP	47	288	4
HLD	48	0	1	96
TAP	48	96	3
HLD	48	192	6	96
TAP	48	288	4
TAP	49	0	3
TAP	49	64	4
TAP	49	128	3
TAP	49	192	4
BRK	49	256	2
BRK	49	256	5
HLD	50	0	1	192
HLD	50	192	2	192
HLD	51	0	3	192
TAP	51	192	4
STR	52	0	0
SI_	52	0	0	96	144	3
STR	52	0	5
SI_	52	0	5	96	144	2
STR	53	0	0
SI_	53	0	0	96	144	3
STR	53	0	5
SI_	53	0	5	96	144	2
HLD	54	0	6	192
HLD	54	192	5	192
HLD	55	0	4	192
BRK	55	192	3
STR	56	0	2
SI_	56	0	2	96	144	5
STR	56	0	6
SI_	56	0	6	96	144	1
STR	57	0	2
SI_	57	0	2	96	144	5
STR	57	0	6
SI_	57	0	6	96	144	1
TAP	58	0	4
HLD	58	96	4	192
TAP	58	192	5
HLD	58	288	5	192
TAP	59	0	6
HLD	59	96	6	192
TAP	59	192	7
HLD	59	288	7	192
TAP	60	0	0
HLD	60	96	0	192
TAP	60	192	1
HLD	60	288	1	192
TAP	61	0	2
HLD	61	96	2	192
TAP	61	192	3
HLD	61	288	3	96
HLD	62	0	4	96
HLD	62	96	5	96
HLD	62	192	6	96
HLD	62	288	7	96
HLD	63	0	0	96
HLD	63	96	1	96
HLD	63	192	2	96
HLD	63	288	3	96
HLD	64	0	4	96
HLD	64	96	6	96
HLD	64	192	0	96
HLD	64	288	2	96
HLD	65	0	4	96
TAP	65	96	6
BRK	65	192	0
BRK	65	192	7
STR	66	0	1
SCR	66	0	1	96	216	4
TAP	66	192	5
STR	67	0	5
SUR	67	0	5	96	216	1
TAP	67	192	2
STR	68	0	2
SUL	68	0	2	96	216	6
TAP	68	192	5
STR	69	0	5
SXR	69	0	5	96	360	6
TAP	69	192	1
STR	70	0	0
SLR	70	0	0	96	432	7
STR	70	192	3
SI_	70	192	3	96	240	6
STR	72	0	2
SI_	72	0	2	96	144	7
STR	72	192	4
SI_	72	192	4	96	144	7
STR	73	0	3
SXR	73	0	3	96	336	7
STR	74	0	6
SCL	74	0	6	96	216	3
TAP	74	192	2
STR	75	0	2
SUL	75	0	2	96	216	6
TAP	75	192	5
STR	76	0	5
SUR	76	0	5	96	216	1
TAP	76	192	2
STR	77	0	2
SXL	77	0	2	96	360	1
TAP	77	192	6
STR	78	0	7
SLL	78	0	7	96	432	0
STR	78	192	4
SI_	78	192	4	96	240	1
STR	80	0	2
SCL	80	0	2	96	144	7
STR	80	192	3
SXL	80	192	3	96	336	7
SXR	80	192	3	96	336	7
TAP	82	0	2
HLD	82	0	5	192
TAP	82	96	3
TAP	82	192	4
HLD	83	0	4	192
STR	83	0	5
SI_	83	0	5	96	144	7
HLD	84	0	2	192
TAP	84	0	5
TAP	84	96	4
TAP	84	192	3
STR	85	0	2
SI_	85	0	2	96	144	0
HLD	85	0	3	192
HLD	86	0	2	192
STR	86	0	3
SI_	86	0	3	96	144	0
STR	87	0	4
SI_	87	0	4	96	144	7
HLD	87	0	5	192
HLD	88	0	2	192
STR	88	0	3
SXL	88	0	3	96	336	3
TAP	89	0	2
TAP	89	192	1
TAP	89	192	4
TAP	90	0	1
HLD	90	0	5	192
TAP	90	96	2
TAP	90	192	4
HLD	91	0	4	192
STR	91	0	5
SI_	91	0	5	96	192	0
HLD	92	0	2	192
TAP	92	0	6
TAP	92	96	5
TAP	92	192	3
STR	93	0	2
SI_	93	0	2	96	192	7
HLD	93	0	3	192
STR	94	0	3
SXR	94	0	3	96	240	3
HLD	94	0	4	192
STR	95	0	4
SXL	95	0	4	96	192	6
SXR	95	0	4	96	192	2
STR	96	0	3
SI_	96	0	3	96	192	0
TAP	96	0	4
TAP	96	192	7
TAP	97	0	0
TAP	97	96	1
TAP	97	96	7
TAP	97	192	2
TAP	97	192	6
STR	98	0	2
SI_	98	0	2	96	144	7
TAP	98	0	3
TAP	98	192	4
STR	99	0	2
SLL	99	0	2	96	192	6
TAP	99	0	3
TAP	99	192	5
STR	100	0	2
SI_	100	0	2	96	144	7
TAP	100	0	3
TAP	100	192	4
STR	101	0	2
SLL	101	0	2	96	192	6
TAP	101	0	3
TAP	101	192	5
TAP	102	0	4
STR	102	0	5
SI_	102	0	5	96	144	0
TAP	102	192	3
TAP	103	0	4
STR	103	0	5
SLR	103	0	5	96	192	1
TAP	103	192	2
TAP	104	0	4
STR	104	0	5
SI_	104	0	5	96	144	0
TAP	104	192	3
TAP	105	0	4
STR	105	0	5
SLR	105	0	5	96	192	1
TAP	105	192	2
HLD	106	0	1	144
TAP	106	144	0
HLD	106	288	2	192
TAP	106	288	7
TAP	107	96	3
TAP	107	192	2
TAP	107	192	3
HLD	108	0	6	144
TAP	108	144	7
TAP	108	288	0
HLD	108	288	5	192
TAP	109	96	4
TAP	109	192	4
TAP	109	192	5
HLD	110	0	0	144
TAP	110	144	7
HLD	110	288	1	192
TAP	110	288	6
TAP	111	96	3
TAP	111	192	1
TAP	111	192	3
HLD	112	0	7	144
TAP	112	144	0
TAP	112	288	1
STR	112	288	6
SXL	112	288	6	96	288	3
HLD	114	0	2	144
TAP	114	144	3
HLD	114	288	1	192
TAP	114	288	4
TAP	115	96	3
TAP	115	192	1
TAP	115	192	3
HLD	116	0	5	144
TAP	116	144	4
TAP	116	288	3
HLD	116	288	6	192
TAP	117	96	4
TAP	117	192	4
TAP	117	192	6
HLD	118	0	2	144
TAP	118	144	3
TAP	118	288	1
HLD	118	288	4	192
TAP	119	96	3
TAP	119	192	3
TAP	119	192	4
HLD	120	0	5	144
TAP	120	144	4
HLD	120	288	3	192
TAP	120	288	6
TAP	121	96	4
HLD	121	192	3	192
HLD	121	192	4	192

T_REC_TAP	298
T_REC_BRK	9
T_REC_XTP	0
T_REC_HLD	66
T_REC_XHO	0
T_REC_STR	54
T_REC_BST	0
T_REC_XST	0
T_REC_TTP	0
T_REC_THO	0
T_REC_SLD	56
T_REC_ALL	483
T_NUM_TAP	352
T_NUM_BRK	9
T_NUM_HLD	66
T_NUM_SLD	56
T_NUM_ALL	483
T_JUDGE_TAP	361
T_JUDGE_HLD	208
T_JUDGE_SLD	56
T_JUDGE_ALL	625
TTM_EACHPAIRS	111
TTM_SCR_TAP	176000
TTM_SCR_BRK	23400
TTM_SCR_HLD	66000
TTM_SCR_SLD	84000
TTM_SCR_ALL	349400
TTM_SCR_S	338050
TTM_SCR_SS	348500
TTM_RAT_ACV	10025

