VERSION	0.00.00	1.03.00
FES_MODE	0
BPM_DEF	222.000	222.000	222.000	204.000
MET_DEF	4	4
RESOLUTION	384
CLK_DEF	384
COMPATIBLE_CODE	MA2

BPM	0	0	222.000
BPM	65	192	204.000
BPM	66	0	222.000
MET	0	0	4	4

TAP	2	0	2
TAP	2	192	2
TAP	2	192	3
TAP	3	0	2
TAP	3	192	1
TAP	3	192	3
TAP	4	0	5
TAP	4	192	4
TAP	4	192	5
TAP	5	0	5
TAP	5	96	5
TAP	5	192	5
TAP	6	0	2
TAP	6	192	2
TAP	6	192	3
TAP	7	0	2
TAP	7	192	1
TAP	7	192	3
TAP	8	0	4
STR	8	192	5
SI_	8	192	5	96	288	2
TAP	10	0	1
TAP	10	192	0
TAP	10	192	1
TAP	11	0	1
TAP	11	192	0
TAP	11	192	2
TAP	12	0	6
TAP	12	192	6
TAP	12	192	7
TAP	13	0	6
TAP	13	96	6
TAP	13	192	6
TAP	14	0	1
TAP	14	192	0
TAP	14	192	1
TAP	15	0	1
TAP	15	192	0
TAP	15	192	2
TAP	16	0	7
STR	16	192	6
SCL	16	192	6	96	288	3
TAP	18	0	2
TAP	18	96	2
TAP	18	192	3
TAP	19	0	1
TAP	19	0	4
TAP	19	192	2
TAP	19	192	3
TAP	20	0	5
TAP	20	96	5
TAP	20	192	4
TAP	21	0	3
TAP	21	0	6
TAP	21	192	4
TAP	21	192	5
TAP	22	0	6
TAP	22	96	6
TAP	22	192	7
TAP	23	0	0
TAP	23	0	5
TAP	23	192	6
TAP	23	192	7
TAP	24	0	1
TAP	24	96	1
TAP	24	192	0
TAP	25	0	2
TAP	25	0	7
TAP	25	192	0
TAP	25	192	1
TAP	26	0	2
TAP	26	96	2
TAP	26	192	3
TAP	26	288	3
TAP	27	0	1
TAP	27	0	4
TAP	27	192	2
TAP	27	192	3
TAP	28	0	5
TAP	28	96	5
TAP	28	192	4
TAP	28	288	4
TAP	29	0	3
TAP	29	0	6
TAP	29	192	4
TAP	29	192	5
TAP	30	0	6
TAP	30	96	6
TAP	30	192	7
TAP	30	288	7
TAP	31	0	0
TAP	31	0	5
TAP	31	192	6
TAP	31	192	7
TAP	32	0	1
TAP	32	96	1
TAP	32	192	0
TAP	32	288	0
HLD	33	0	2	192
HLD	33	0	7	192
HLD	34	0	1	576
HLD	34	0	6	576
TAP	36	0	2
TAP	36	192	2
TAP	36	192	3
TAP	37	0	1
TAP	37	96	1
TAP	37	192	0
TAP	37	192	2
TAP	38	0	5
TAP	38	192	4
TAP	38	192	5
TAP	39	0	6
TAP	39	96	6
TAP	39	192	5
TAP	39	192	7
TAP	40	0	2
TAP	40	0	3
TAP	40	192	4
TAP	40	192	5
HLD	41	0	3	192
HLD	41	0	4	192
TAP	42	0	2
TAP	42	192	0
TAP	42	192	1
TAP	43	0	2
TAP	43	96	2
TAP	43	192	1
TAP	43	192	3
TAP	44	0	5
TAP	44	192	6
TAP	44	192	7
TAP	45	0	5
TAP	45	96	5
TAP	45	192	4
TAP	45	192	6
TAP	46	0	1
TAP	46	192	2
TAP	46	192	3
TAP	47	0	1
TAP	47	96	1
TAP	47	192	0
TAP	47	192	2
TAP	48	0	6
STR	48	192	4
SI_	48	192	4	96	288	1
STR	48	192	5
SI_	48	192	5	96	288	0
HLD	50	0	1	192
TAP	50	192	2
HLD	51	0	6	192
TAP	51	192	5
HLD	52	0	2	192
TAP	52	192	3
HLD	53	0	5	192
TAP	53	192	4
HLD	54	0	3	192
TAP	54	192	4
HLD	55	0	4	192
TAP	55	192	3
HLD	56	0	3	192
HLD	57	0	4	192
TAP	58	0	3
TAP	58	192	2
TAP	58	192	3
TAP	59	0	4
TAP	59	192	4
TAP	59	192	5
TAP	60	0	3
TAP	60	192	1
TAP	60	192	2
TAP	61	0	4
TAP	61	192	5
TAP	61	192	6
TAP	62	0	3
TAP	62	0	4
TAP	62	192	0
TAP	62	192	1
TAP	63	0	3
TAP	63	0	4
TAP	63	192	6
TAP	63	192	7
STR	64	0	3
SI_	64	0	3	96	288	0
STR	64	0	4
SI_	64	0	4	96	288	7
BRK	65	192	1
BRK	65	192	6
HLD	66	0	3	192
HLD	67	0	4	192
HLD	68	0	3	192
TAP	69	0	4
TAP	69	192	3
TAP	69	192	4
HLD	70	0	2	192
HLD	71	0	5	192
HLD	72	0	2	192
TAP	73	0	3
TAP	73	0	4
TAP	73	192	3
TAP	73	192	4
HLD	74	0	5	192
TAP	74	192	4
HLD	75	0	2	192
TAP	75	192	3
HLD	76	0	5	192
TAP	76	192	4
TAP	77	0	2
TAP	77	96	2
TAP	77	192	2
TAP	77	192	3
HLD	78	0	5	192
HLD	78	192	4	192
HLD	79	0	3	192
TAP	79	192	2
HLD	80	0	2	192
HLD	80	192	3	192
HLD	81	0	4	192
TAP	81	192	5
HLD	82	0	5	192
TAP	82	192	4
TAP	83	0	5
TAP	83	96	5
TAP	83	192	4
TAP	83	192	6
HLD	84	0	2	192
TAP	84	192	3
TAP	85	0	2
TAP	85	96	2
TAP	85	192	1
TAP	85	192	3
HLD	86	0	5	192
TAP	86	192	4
TAP	87	0	5
TAP	87	96	5
TAP	87	192	4
TAP	87	192	6
HLD	88	0	2	192
HLD	88	192	1	192
HLD	89	0	0	192
TAP	89	192	7
HLD	90	0	1	192
TAP	90	192	0
TAP	91	0	1
TAP	91	96	1
TAP	91	192	0
TAP	91	192	2
HLD	92	0	6	192
TAP	92	192	7
TAP	93	0	6
TAP	93	96	6
TAP	93	192	5
TAP	93	192	7
HLD	94	0	1	192
TAP	94	192	0
TAP	95	0	1
TAP	95	96	1
TAP	95	192	0
TAP	95	192	2
STR	96	0	0
SCR	96	0	0	96	288	3
STR	96	0	7
SCL	96	0	7	96	288	4
TAP	97	192	2
TAP	97	192	5
HLD	98	0	1	192
TAP	98	192	0
TAP	99	0	7
TAP	99	96	6
TAP	99	192	0
TAP	99	192	5
TAP	100	0	1
TAP	100	96	1
TAP	100	192	0
TAP	100	288	0
TAP	101	0	2
TAP	101	0	7
BRK	101	192	1
BRK	101	192	6
HLD	102	0	6	192
TAP	102	192	7
TAP	103	0	0
TAP	103	96	1
TAP	103	192	2
TAP	103	192	7
TAP	104	0	6
TAP	104	96	6
TAP	104	192	7
TAP	104	288	7
TAP	105	0	0
TAP	105	0	5
BRK	105	192	1
BRK	105	192	6
HLD	106	0	2	576
TAP	106	0	3
TAP	107	96	3
TAP	107	192	3
TAP	108	0	4
HLD	108	0	5	576
TAP	109	96	4
TAP	109	192	4
HLD	110	0	2	576
TAP	110	0	3
TAP	111	96	3
TAP	111	192	3
TAP	112	0	4
HLD	112	0	5	384
TAP	113	0	4
TAP	113	192	3
TAP	113	192	6
HLD	114	0	3	576
TAP	114	0	4
TAP	115	96	4
TAP	115	192	4
TAP	116	0	3
HLD	116	0	4	576
TAP	117	96	3
TAP	117	192	3
HLD	118	0	3	288
TAP	119	96	3
TAP	119	192	3
HLD	120	0	4	288
TAP	121	96	4
TAP	121	192	4
STR	122	0	2
SCR	122	0	2	96	288	5

T_REC_TAP	254
T_REC_BRK	6
T_REC_XTP	0
T_REC_HLD	48
T_REC_XHO	0
T_REC_STR	9
T_REC_BST	0
T_REC_XST	0
T_REC_TTP	0
T_REC_THO	0
T_REC_SLD	9
T_REC_ALL	326
T_NUM_TAP	263
T_NUM_BRK	6
T_NUM_HLD	48
T_NUM_SLD	9
T_NUM_ALL	326
T_JUDGE_TAP	269
T_JUDGE_HLD	256
T_JUDGE_SLD	9
T_JUDGE_ALL	534
TTM_EACHPAIRS	75
TTM_SCR_TAP	131500
TTM_SCR_BRK	15600
TTM_SCR_HLD	48000
TTM_SCR_SLD	13500
TTM_SCR_ALL	208600
TTM_SCR_S	201800
TTM_SCR_SS	208000
TTM_RAT_ACV	10028

