VERSION	0.00.00	1.03.00
FES_MODE	0
BPM_DEF	222.000	222.000	222.000	204.000
MET_DEF	4	4
RESOLUTION	384
CLK_DEF	384
COMPATIBLE_CODE	MA2

BPM	0	0	222.000
BPM	65	192	204.000
BPM	66	0	222.000
MET	0	0	4	4

TAP	2	0	0
TAP	2	192	0
TAP	3	0	0
TAP	4	0	1
TAP	4	192	1
TAP	5	0	1
TAP	6	0	2
TAP	6	192	2
TAP	7	0	2
TAP	8	0	3
TAP	8	192	3
TAP	9	0	3
TAP	9	0	4
TAP	10	0	4
TAP	10	192	4
TAP	11	0	4
TAP	12	0	5
TAP	12	192	5
TAP	13	0	5
TAP	14	0	6
TAP	14	192	6
TAP	15	0	6
TAP	16	0	7
TAP	16	192	7
TAP	17	0	0
TAP	17	0	7
HLD	18	0	0	384
HLD	20	0	7	384
HLD	22	0	6	384
TAP	24	0	5
TAP	24	192	5
TAP	25	0	4
TAP	25	0	5
HLD	26	0	4	384
HLD	28	0	3	384
HLD	30	0	2	384
TAP	32	0	1
TAP	32	192	1
TAP	33	0	0
TAP	33	0	1
TAP	34	0	0
TAP	34	0	7
TAP	36	0	1
TAP	36	192	1
TAP	37	0	1
TAP	38	0	2
TAP	38	192	2
TAP	39	0	2
TAP	40	0	3
TAP	40	0	4
TAP	40	192	3
TAP	40	192	4
TAP	41	0	3
TAP	41	0	4
TAP	42	0	4
TAP	42	192	4
TAP	43	0	4
TAP	44	0	5
TAP	44	192	5
TAP	45	0	5
TAP	46	0	6
TAP	46	192	6
TAP	47	0	6
TAP	48	0	0
TAP	48	0	7
TAP	48	192	0
TAP	48	192	7
TAP	49	0	0
TAP	49	0	7
STR	50	0	0
SI_	50	0	0	96	672	4
STR	54	0	7
SI_	54	0	7	96	672	3
HLD	58	0	0	384
HLD	58	0	1	384
HLD	60	0	6	384
HLD	60	0	7	384
HLD	62	0	0	384
HLD	62	0	7	384
TAP	64	0	0
TAP	64	0	7
TAP	64	192	0
TAP	64	192	7
BRK	65	0	0
BRK	65	0	7
HLD	66	0	1	384
HLD	68	0	2	384
HLD	70	0	3	384
TAP	72	0	3
TAP	72	0	4
TAP	72	192	3
TAP	72	192	4
TAP	73	0	3
TAP	73	0	4
HLD	74	0	4	384
HLD	76	0	5	384
HLD	78	0	6	384
TAP	80	0	0
TAP	80	0	7
TAP	80	192	0
TAP	80	192	7
TAP	81	0	0
TAP	81	0	7
TAP	82	0	1
TAP	82	192	1
TAP	83	0	0
TAP	83	192	0
TAP	84	0	7
TAP	84	192	7
TAP	85	0	0
TAP	85	0	7
TAP	86	0	6
TAP	86	192	6
TAP	87	0	5
TAP	87	192	5
TAP	88	0	4
TAP	88	192	4
TAP	89	0	3
TAP	89	0	4
TAP	90	0	2
TAP	90	192	2
TAP	91	0	3
TAP	91	192	3
TAP	92	0	4
TAP	92	192	4
TAP	93	0	3
TAP	93	0	4
TAP	94	0	5
TAP	94	192	5
TAP	95	0	6
TAP	95	192	6
TAP	96	0	7
TAP	96	192	7
TAP	97	0	0
TAP	97	0	7
STR	98	0	1
SI_	98	0	1	96	672	5
STR	102	0	6
SI_	102	0	6	96	672	2
TAP	106	0	7
TAP	106	192	7
TAP	107	0	7
TAP	108	0	6
TAP	108	192	6
TAP	109	0	6
TAP	110	0	5
TAP	110	192	5
TAP	111	0	5
TAP	112	0	4
TAP	112	192	3
TAP	113	0	3
TAP	113	0	4
TAP	114	0	3
TAP	114	192	3
TAP	115	0	3
TAP	116	0	2
TAP	116	192	2
TAP	117	0	2
TAP	118	0	1
TAP	118	192	1
TAP	119	0	1
TAP	120	0	0
TAP	120	192	7
TAP	121	0	0
TAP	121	0	7
STR	122	0	0
SI_	122	0	0	96	672	3

T_REC_TAP	137
T_REC_BRK	2
T_REC_XTP	0
T_REC_HLD	18
T_REC_XHO	0
T_REC_STR	5
T_REC_BST	0
T_REC_XST	0
T_REC_TTP	0
T_REC_THO	0
T_REC_SLD	5
T_REC_ALL	167
T_NUM_TAP	142
T_NUM_BRK	2
T_NUM_HLD	18
T_NUM_SLD	5
T_NUM_ALL	167
T_JUDGE_TAP	144
T_JUDGE_HLD	144
T_JUDGE_SLD	5
T_JUDGE_ALL	293
TTM_EACHPAIRS	29
TTM_SCR_TAP	71000
TTM_SCR_BRK	5200
TTM_SCR_HLD	18000
TTM_SCR_SLD	7500
TTM_SCR_ALL	101700
TTM_SCR_S	98500
TTM_SCR_SS	101500
TTM_RAT_ACV	10019

