VERSION	0.00.00	1.03.00
FES_MODE	0
BPM_DEF	 95.000	 95.000	 95.000	 95.000
MET_DEF	4	4
RESOLUTION	384
CLK_DEF	384
COMPATIBLE_CODE	MA2

BPM	0	0	 95.000
MET	0	0	4	4

HLD	1	0	5	288
TAP	1	48	4
STR	1	72	4
SLL	1	72	4	96	72	0
TAP	1	120	3
TAP	1	168	4
TAP	1	288	4
TAP	1	336	3
TAP	1	336	4
HLD	2	0	2	288
TAP	2	48	3
STR	2	72	3
SLR	2	72	3	96	72	7
TAP	2	120	4
TAP	2	168	3
TAP	2	288	3
TAP	2	336	3
TAP	2	336	4
HLD	3	0	5	288
TAP	3	48	4
STR	3	72	4
SLR	3	72	4	96	72	0
TAP	3	120	3
TAP	3	168	4
TAP	3	288	4
TAP	3	336	3
TAP	3	336	4
HLD	4	0	2	288
TAP	4	48	3
STR	4	72	3
SLL	4	72	3	96	72	7
TAP	4	120	4
TAP	4	168	3
TAP	4	288	3
TAP	4	336	3
TAP	4	336	4
STR	5	0	0
SCR	5	0	0	96	48	3
TAP	5	0	7
TAP	5	48	6
TAP	5	72	6
TAP	5	96	0
TAP	5	96	5
TAP	5	144	6
TAP	5	192	0
STR	5	192	7
SCL	5	192	7	96	48	4
TAP	5	240	1
TAP	5	264	1
TAP	5	288	2
TAP	5	288	7
TAP	5	336	1
STR	6	0	0
SCR	6	0	0	96	48	3
TAP	6	0	7
TAP	6	48	6
TAP	6	72	6
TAP	6	96	0
TAP	6	96	5
TAP	6	144	6
TAP	6	192	0
STR	6	192	7
SCL	6	192	7	96	48	4
TAP	6	240	1
TAP	6	264	1
TAP	6	288	2
TAP	6	288	7
TAP	6	336	1
STR	7	0	0
SCR	7	0	0	96	48	3
TAP	7	0	7
TAP	7	48	7
TAP	7	72	6
TAP	7	96	0
TAP	7	96	5
TAP	7	144	6
TAP	7	192	0
STR	7	192	7
SCL	7	192	7	96	48	4
TAP	7	240	0
TAP	7	264	1
TAP	7	288	2
TAP	7	288	7
TAP	7	336	1
STR	8	0	0
SCR	8	0	0	96	48	3
TAP	8	0	7
TAP	8	48	7
TAP	8	72	6
TAP	8	96	0
TAP	8	96	5
TAP	8	144	6
TAP	8	192	0
STR	8	192	7
SCL	8	192	7	96	48	4
TAP	8	240	0
TAP	8	264	1
TAP	8	288	2
TAP	8	288	7
TAP	8	336	1
HLD	9	0	6	48
TAP	9	48	5
HLD	9	72	4	48
TAP	9	120	3
TAP	9	144	2
STR	9	192	2
SCL	9	192	2	96	24	7
STR	9	192	6
SCL	9	192	6	96	24	3
TAP	9	240	1
TAP	9	264	5
TAP	9	288	2
TAP	9	288	6
HLD	10	0	1	48
TAP	10	48	2
HLD	10	72	3	48
TAP	10	120	4
TAP	10	144	5
STR	10	192	1
SCR	10	192	1	96	24	4
STR	10	192	5
SCR	10	192	5	96	24	0
TAP	10	240	6
TAP	10	264	2
TAP	10	288	1
TAP	10	288	5
HLD	11	0	6	48
TAP	11	48	5
HLD	11	72	4	48
TAP	11	120	3
TAP	11	144	2
HLD	11	192	1	48
TAP	11	240	2
HLD	11	264	3	48
TAP	11	312	4
TAP	11	336	5
HLD	12	0	5	72
TAP	12	48	4
STR	12	72	4
SCR	12	72	4	96	96	3
TAP	12	120	0
TAP	12	168	4
TAP	12	336	3
TAP	12	336	4
HLD	13	0	2	48
TAP	13	48	1
HLD	13	72	0	48
TAP	13	120	7
TAP	13	144	6
STR	13	192	2
SCL	13	192	2	96	24	7
STR	13	192	6
SCL	13	192	6	96	24	3
TAP	13	240	1
TAP	13	264	5
TAP	13	288	2
TAP	13	288	6
HLD	14	0	5	48
TAP	14	48	6
HLD	14	72	7	48
TAP	14	120	0
TAP	14	144	1
STR	14	192	1
SCR	14	192	1	96	24	4
STR	14	192	5
SCR	14	192	5	96	24	0
TAP	14	240	6
TAP	14	264	2
TAP	14	288	1
TAP	14	288	5
HLD	15	0	2	48
TAP	15	48	1
HLD	15	72	0	48
TAP	15	120	7
TAP	15	144	6
HLD	15	192	5	48
TAP	15	240	6
HLD	15	264	7	48
TAP	15	312	0
TAP	15	336	1
HLD	16	0	2	72
TAP	16	48	3
STR	16	72	3
SCL	16	72	3	96	96	4
TAP	16	120	7
TAP	16	168	3
TAP	16	312	3
TAP	16	312	4
TAP	16	336	5
HLD	16	360	6	48
TAP	17	24	4
TAP	17	48	3
HLD	17	72	2	48
TAP	17	120	5
TAP	17	144	6
HLD	17	168	7	48
TAP	17	216	3
TAP	17	240	2
HLD	17	264	1	48
TAP	17	312	0
TAP	17	336	7
HLD	17	360	6	48
TAP	18	24	0
TAP	18	48	1
HLD	18	72	2	48
TAP	18	120	7
TAP	18	144	6
TAP	18	168	5
TAP	18	192	4
TAP	18	240	3
TAP	18	240	4
TAP	18	288	4
TAP	18	312	3
TAP	18	336	2
HLD	18	360	1	48
TAP	19	24	3
TAP	19	48	4
HLD	19	72	5	48
TAP	19	120	2
TAP	19	144	1
HLD	19	168	0	48
TAP	19	216	4
TAP	19	240	5
HLD	19	264	6	48
TAP	19	312	7
TAP	19	336	0
HLD	19	360	1	48
TAP	20	24	7
TAP	20	48	6
HLD	20	72	5	48
TAP	20	120	0
TAP	20	144	1
TAP	20	168	2
TAP	20	192	3
TAP	20	192	5
TAP	20	240	1
TAP	20	240	6
STR	20	288	0
SI_	20	288	0	96	24	4
STR	20	288	7
SI_	20	288	7	96	24	3
TAP	20	336	3
TAP	20	336	4
BRK	21	0	0
BRK	21	0	7
TAP	21	48	1
TAP	21	48	6
TAP	21	72	1
TAP	21	72	6
TAP	21	120	5
TAP	21	144	6
STR	21	168	7
SCR	21	168	7	96	24	2
TAP	21	192	2
TAP	21	192	7
TAP	21	228	0
TAP	21	228	6
TAP	21	264	5
TAP	21	264	7
TAP	21	312	4
TAP	21	336	2
HLD	21	360	0	48
TAP	22	24	3
TAP	22	48	5
HLD	22	72	7	48
TAP	22	120	4
TAP	22	144	2
STR	22	168	0
SCL	22	168	0	96	24	5
TAP	22	192	0
TAP	22	192	5
TAP	22	228	1
TAP	22	228	7
TAP	22	264	0
TAP	22	264	2
TAP	22	312	0
TAP	22	336	0
TAP	22	360	7
TAP	23	0	0
TAP	23	0	7
TAP	23	48	1
TAP	23	48	6
TAP	23	72	1
TAP	23	72	6
TAP	23	120	2
TAP	23	144	1
STR	23	168	0
SCL	23	168	0	96	24	5
TAP	23	192	0
TAP	23	192	5
TAP	23	228	1
TAP	23	228	7
TAP	23	264	0
TAP	23	264	2
TAP	23	312	3
TAP	23	336	5
HLD	23	360	7	48
TAP	24	24	4
TAP	24	48	2
HLD	24	72	0	48
TAP	24	120	3
TAP	24	144	5
STR	24	168	7
SCR	24	168	7	96	24	2
TAP	24	192	2
TAP	24	192	7
TAP	24	228	0
TAP	24	228	6
TAP	24	264	5
TAP	24	264	7
TAP	24	312	3
TAP	24	312	4
TAP	24	336	3
TAP	24	336	4
BRK	25	0	0
BRK	25	0	7
TAP	25	48	1
TAP	25	48	6
TAP	25	72	1
TAP	25	72	6
TAP	25	120	2
TAP	25	144	1
STR	25	168	0
SCL	25	168	0	96	24	5
TAP	25	192	0
TAP	25	192	5
TAP	25	228	1
TAP	25	228	7
TAP	25	264	0
TAP	25	264	2
TAP	25	312	3
TAP	25	336	5
HLD	25	360	7	48
TAP	26	24	4
TAP	26	48	2
HLD	26	72	0	48
TAP	26	120	3
TAP	26	144	5
STR	26	168	7
SCR	26	168	7	96	24	2
TAP	26	192	2
TAP	26	192	7
TAP	26	228	0
TAP	26	228	6
TAP	26	264	5
TAP	26	264	7
TAP	26	312	3
TAP	26	312	4
TAP	26	336	3
TAP	26	336	4
HLD	27	0	0	96
TAP	27	0	7
TAP	27	48	2
HLD	27	96	7	96
TAP	27	144	5
HLD	27	192	1	96
TAP	27	240	3
HLD	27	288	6	96
TAP	27	336	4
TAP	28	0	3
TAP	28	48	3
TAP	28	48	4
STR	28	72	3
SCL	28	72	3	96	72	0
STR	28	72	4
SCR	28	72	4	96	72	7
TAP	28	120	0
TAP	28	120	7
TAP	28	168	3
TAP	28	168	4
TAP	28	288	1
TAP	28	288	6
STR	29	0	2
SI_	29	0	2	96	24	4
TAP	29	0	5
TAP	29	48	1
TAP	29	72	7
TAP	29	96	2
STR	29	192	2
SI_	29	192	2	96	24	4
TAP	29	192	5
TAP	29	240	1
TAP	29	264	7
TAP	29	288	2
STR	30	0	2
SI_	30	0	2	96	24	4
TAP	30	0	5
TAP	30	48	1
TAP	30	72	7
TAP	30	96	2
TAP	30	144	1
TAP	30	168	7
STR	30	192	2
SI_	30	192	2	96	24	4
TAP	30	192	5
TAP	30	240	1
TAP	30	264	7
TAP	30	288	2
TAP	30	336	1
TAP	31	0	2
STR	31	0	5
SI_	31	0	5	96	24	3
TAP	31	48	6
TAP	31	72	0
TAP	31	96	5
TAP	31	192	2
STR	31	192	5
SI_	31	192	5	96	24	3
TAP	31	240	6
TAP	31	264	0
TAP	31	288	5
TAP	32	0	2
STR	32	0	5
SI_	32	0	5	96	24	3
TAP	32	48	6
TAP	32	72	0
TAP	32	96	5
TAP	32	144	6
TAP	32	168	0
TAP	32	192	2
STR	32	192	5
SI_	32	192	5	96	24	3
TAP	32	240	6
TAP	32	264	0
TAP	32	288	5
TAP	32	336	6
STR	33	0	1
SCR	33	0	1	96	24	4
STR	33	0	4
SCR	33	0	4	96	24	7
TAP	33	48	6
TAP	33	72	0
TAP	33	96	1
TAP	33	96	4
STR	33	192	1
SCR	33	192	1	96	24	4
STR	33	192	4
SCR	33	192	4	96	24	7
TAP	33	240	6
TAP	33	264	0
TAP	33	288	1
TAP	33	288	4
STR	34	0	1
SCR	34	0	1	96	24	4
STR	34	0	4
SCR	34	0	4	96	24	7
TAP	34	48	6
TAP	34	72	0
TAP	34	96	1
TAP	34	96	4
TAP	34	144	6
TAP	34	168	0
STR	34	192	1
SCR	34	192	1	96	24	4
STR	34	192	4
SCR	34	192	4	96	24	7
TAP	34	240	6
TAP	34	264	0
TAP	34	288	1
TAP	34	288	4
TAP	34	336	6
STR	35	0	3
SCL	35	0	3	96	24	0
STR	35	0	6
SCL	35	0	6	96	24	3
TAP	35	48	1
TAP	35	72	7
TAP	35	96	3
TAP	35	96	6
STR	35	192	3
SCL	35	192	3	96	24	0
STR	35	192	6
SCL	35	192	6	96	24	3
TAP	35	240	1
TAP	35	264	7
TAP	35	288	3
TAP	35	288	6
STR	36	0	3
SCL	36	0	3	96	24	0
STR	36	0	6
SCL	36	0	6	96	24	3
TAP	36	48	1
TAP	36	72	7
TAP	36	96	3
TAP	36	96	6
TAP	36	144	1
TAP	36	168	7
STR	36	192	3
SCL	36	192	3	96	24	0
STR	36	192	6
SCL	36	192	6	96	24	3
TAP	36	240	1
TAP	36	264	7
TAP	36	288	3
TAP	36	288	6
TAP	36	336	1
TAP	37	0	4
TAP	37	0	5
TAP	37	48	3
TAP	37	48	5
TAP	37	96	3
TAP	37	96	6
TAP	37	144	3
TAP	37	144	7
TAP	37	192	2
TAP	37	192	7
TAP	37	240	1
TAP	37	240	7
TAP	37	288	0
TAP	37	288	1
TAP	37	336	1
TAP	37	336	2
TAP	38	0	2
TAP	38	0	3
TAP	38	48	2
TAP	38	48	4
TAP	38	96	1
TAP	38	96	4
TAP	38	144	0
TAP	38	144	4
TAP	38	192	0
TAP	38	192	5
TAP	38	240	0
TAP	38	240	6
STR	38	288	6
SI_	38	288	6	96	24	2
STR	38	288	7
SI_	38	288	7	96	24	3
TAP	38	336	2
TAP	38	336	3
BRK	39	0	6
BRK	39	0	7
TAP	39	48	1
TAP	39	48	6
TAP	39	72	1
TAP	39	72	6
TAP	39	120	3
TAP	39	144	1
STR	39	168	0
SCL	39	168	0	96	24	4
TAP	39	192	0
TAP	39	192	4
TAP	39	228	1
TAP	39	228	7
TAP	39	264	0
TAP	39	264	3
TAP	39	312	3
TAP	39	336	5
HLD	39	360	7	48
TAP	40	24	4
TAP	40	48	2
HLD	40	72	0	48
TAP	40	120	3
TAP	40	144	5
STR	40	168	7
SCR	40	168	7	96	24	3
TAP	40	192	3
TAP	40	192	7
TAP	40	228	0
TAP	40	228	6
TAP	40	264	4
TAP	40	264	7
TAP	40	312	7
TAP	40	336	7
TAP	40	360	0
TAP	41	0	0
TAP	41	0	7
TAP	41	48	1
TAP	41	48	6
TAP	41	72	1
TAP	41	72	6
TAP	41	120	4
TAP	41	144	6
STR	41	168	7
SCR	41	168	7	96	24	3
TAP	41	192	3
TAP	41	192	7
TAP	41	228	0
TAP	41	228	6
TAP	41	264	4
TAP	41	264	7
TAP	41	312	4
TAP	41	336	2
HLD	41	360	0	48
TAP	42	24	3
TAP	42	48	5
HLD	42	72	7	48
TAP	42	120	4
TAP	42	144	2
STR	42	168	0
SCL	42	168	0	96	24	4
TAP	42	192	0
TAP	42	192	4
TAP	42	228	1
TAP	42	228	7
TAP	42	264	0
TAP	42	264	3
TAP	42	312	3
TAP	42	336	3
TAP	42	336	4
BRK	43	0	0
BRK	43	0	7
TAP	43	48	1
TAP	43	48	6
TAP	43	72	1
TAP	43	72	6
TAP	43	120	4
TAP	43	144	6
STR	43	168	7
SCR	43	168	7	96	24	3
TAP	43	192	3
TAP	43	192	7
TAP	43	228	0
TAP	43	228	6
TAP	43	264	4
TAP	43	264	7
TAP	43	312	4
TAP	43	336	2
HLD	43	360	0	48
TAP	44	24	3
TAP	44	48	5
HLD	44	72	7	48
TAP	44	120	4
TAP	44	144	2
STR	44	168	0
SCL	44	168	0	96	24	4
TAP	44	192	0
TAP	44	192	4
TAP	44	228	1
TAP	44	228	7
TAP	44	264	0
TAP	44	264	3
TAP	44	312	3
TAP	44	336	3
TAP	44	336	4
TAP	45	0	0
HLD	45	0	7	96
TAP	45	48	5
HLD	45	96	0	96
TAP	45	144	2
HLD	45	192	6	96
TAP	45	240	4
HLD	45	288	1	96
TAP	45	336	3
TAP	46	0	4
TAP	46	48	3
TAP	46	48	4
STR	46	72	3
SCL	46	72	3	96	72	0
STR	46	72	4
SCR	46	72	4	96	72	7
TAP	46	120	0
TAP	46	120	7
TAP	46	168	3
TAP	46	168	4
TAP	46	288	3
TAP	46	288	4
TAP	48	336	3
TAP	48	336	4
TAP	49	0	1
STR	49	0	3
SI_	49	0	3	96	24	0
TAP	49	48	2
TAP	49	72	4
TAP	49	96	3
TAP	49	144	7
STR	49	192	4
SI_	49	192	4	96	24	7
TAP	49	192	6
TAP	49	240	5
TAP	49	264	3
TAP	49	288	4
TAP	49	336	0
TAP	50	0	1
STR	50	0	3
SI_	50	0	3	96	24	0
TAP	50	48	2
TAP	50	72	4
TAP	50	96	3
TAP	50	144	7
STR	50	192	4
SI_	50	192	4	96	24	7
TAP	50	192	6
TAP	50	240	5
TAP	50	264	3
TAP	50	288	4
TAP	50	336	0
STR	51	0	3
SI_	51	0	3	96	24	7
TAP	51	0	5
TAP	51	48	4
TAP	51	72	2
TAP	51	96	3
TAP	51	144	1
TAP	51	168	1
TAP	51	192	2
STR	51	192	4
SI_	51	192	4	96	24	0
TAP	51	240	3
TAP	51	264	5
TAP	51	288	4
TAP	51	336	6
TAP	51	360	6
STR	52	0	3
SI_	52	0	3	96	24	7
TAP	52	0	5
TAP	52	48	4
TAP	52	72	2
TAP	52	96	3
TAP	52	144	1
TAP	52	168	1
TAP	52	192	2
STR	52	192	4
SI_	52	192	4	96	24	0
STR	52	240	3
SI_	52	240	3	96	24	7
TAP	52	264	5
TAP	52	288	4
TAP	52	336	3

T_REC_TAP	507
T_REC_BRK	8
T_REC_XTP	0
T_REC_HLD	54
T_REC_XHO	0
T_REC_STR	75
T_REC_BST	0
T_REC_XST	0
T_REC_TTP	0
T_REC_THO	0
T_REC_SLD	75
T_REC_ALL	719
T_NUM_TAP	582
T_NUM_BRK	8
T_NUM_HLD	54
T_NUM_SLD	75
T_NUM_ALL	719
T_JUDGE_TAP	590
T_JUDGE_HLD	166
T_JUDGE_SLD	75
T_JUDGE_ALL	831
TTM_EACHPAIRS	156
TTM_SCR_TAP	291000
TTM_SCR_BRK	20800
TTM_SCR_HLD	54000
TTM_SCR_SLD	112500
TTM_SCR_ALL	478300
TTM_SCR_S	463200
TTM_SCR_SS	477500
TTM_RAT_ACV	10016

