VERSION	0.00.00	1.03.00
FES_MODE	0
BPM_DEF	 95.000	 95.000	 95.000	 95.000
MET_DEF	4	4
RESOLUTION	384
CLK_DEF	384
COMPATIBLE_CODE	MA2

BPM	0	0	 95.000
MET	0	0	4	4

TAP	1	0	4
TAP	1	48	3
HLD	1	96	2	96
HLD	1	192	7	96
TAP	1	288	0
TAP	2	0	3
TAP	2	48	4
HLD	2	96	5	96
HLD	2	192	0	96
TAP	2	288	7
TAP	3	0	4
TAP	3	48	2
HLD	3	96	0	96
HLD	3	192	6	96
TAP	3	288	5
TAP	4	0	3
TAP	4	48	5
HLD	4	96	7	96
HLD	4	192	1	96
TAP	4	288	2
TAP	5	0	4
TAP	5	0	5
TAP	5	48	3
TAP	5	48	4
STR	5	96	2
SCL	5	96	2	96	120	5
STR	5	96	3
SUL	5	96	3	96	120	4
TAP	6	0	2
TAP	6	0	3
TAP	6	48	3
TAP	6	48	4
STR	6	96	4
SUR	6	96	4	96	120	3
STR	6	96	5
SCR	6	96	5	96	120	2
TAP	7	0	3
TAP	7	0	4
TAP	7	48	2
TAP	7	48	3
STR	7	96	1
SLL	7	96	1	96	96	5
STR	7	96	2
SV_	7	96	2	96	96	4
TAP	8	0	3
TAP	8	0	4
TAP	8	48	4
TAP	8	48	5
STR	8	96	5
SV_	8	96	5	96	96	3
STR	8	96	6
SLR	8	96	6	96	96	2
HLD	9	0	6	72
HLD	9	72	5	72
TAP	9	144	4
TAP	9	192	3
TAP	9	240	2
TAP	9	288	1
TAP	9	288	3
HLD	10	0	1	72
HLD	10	72	2	72
TAP	10	144	3
TAP	10	192	4
TAP	10	240	5
TAP	10	288	4
TAP	10	288	6
TAP	11	0	3
TAP	11	48	4
TAP	11	96	5
TAP	11	144	6
TAP	11	144	7
TAP	11	192	0
TAP	11	240	1
TAP	11	288	2
TAP	11	336	3
TAP	11	336	4
TAP	12	0	5
TAP	12	48	6
TAP	12	96	7
TAP	12	144	0
TAP	12	144	1
STR	12	192	2
SCL	12	192	2	96	48	0
STR	12	192	7
SCL	12	192	7	96	48	5
HLD	13	0	4	72
HLD	13	72	5	72
TAP	13	144	6
TAP	13	192	4
TAP	13	192	7
TAP	13	240	0
TAP	13	240	3
TAP	13	288	1
TAP	13	288	2
HLD	14	0	3	72
HLD	14	72	2	72
TAP	14	144	1
TAP	14	192	0
TAP	14	192	3
TAP	14	240	4
TAP	14	240	7
TAP	14	288	5
TAP	14	288	6
TAP	15	0	0
TAP	15	48	7
TAP	15	96	6
TAP	15	144	4
TAP	15	144	5
TAP	15	192	3
TAP	15	240	2
TAP	15	288	1
TAP	15	336	0
TAP	15	336	7
TAP	16	0	6
TAP	16	48	5
TAP	16	96	4
TAP	16	144	2
TAP	16	144	3
STR	16	192	1
SCR	16	192	1	96	48	3
STR	16	192	4
SCR	16	192	4	96	48	6
STR	17	0	6
SI_	17	0	6	96	48	4
STR	17	96	0
SI_	17	96	0	96	48	2
STR	17	192	7
SI_	17	192	7	96	48	3
STR	17	288	0
SI_	17	288	0	96	48	2
STR	18	0	6
SI_	18	0	6	96	48	4
STR	18	96	3
SCL	18	96	3	96	144	4
STR	19	0	2
SI_	19	0	2	96	48	0
STR	19	96	4
SI_	19	96	4	96	48	6
STR	19	192	3
SI_	19	192	3	96	48	7
STR	19	288	4
SI_	19	288	4	96	48	6
STR	20	0	2
SI_	20	0	2	96	48	0
HLD	20	96	7	96
TAP	20	192	0
TAP	20	240	1
TAP	20	240	6
TAP	20	288	2
TAP	20	288	5
TAP	20	336	3
TAP	20	336	4
HLD	21	0	0	48
HLD	21	0	7	48
HLD	21	72	1	48
HLD	21	72	6	48
TAP	21	144	2
TAP	21	144	5
TAP	21	192	0
TAP	21	192	1
TAP	21	228	0
TAP	21	228	1
TAP	21	264	2
TAP	21	264	7
TAP	21	312	3
TAP	21	336	4
TAP	21	360	5
TAP	22	24	5
TAP	22	48	4
TAP	22	72	3
TAP	22	120	3
TAP	22	144	4
TAP	22	168	5
TAP	22	192	6
TAP	22	192	7
TAP	22	228	6
TAP	22	228	7
TAP	22	264	0
TAP	22	264	5
HLD	23	0	6	72
HLD	23	72	5	72
TAP	23	144	4
TAP	23	192	2
TAP	23	192	3
TAP	23	228	2
TAP	23	228	3
TAP	23	264	1
TAP	23	264	4
TAP	23	312	2
TAP	23	336	3
TAP	23	360	4
TAP	24	24	4
TAP	24	48	3
TAP	24	72	2
TAP	24	120	2
TAP	24	144	3
TAP	24	168	4
TAP	24	192	4
TAP	24	192	5
TAP	24	228	4
TAP	24	228	5
TAP	24	264	3
TAP	24	264	6
HLD	25	0	0	48
HLD	25	0	7	48
HLD	25	72	1	48
HLD	25	72	6	48
TAP	25	144	2
TAP	25	144	5
TAP	25	192	6
TAP	25	192	7
TAP	25	228	6
TAP	25	228	7
TAP	25	264	0
TAP	25	264	5
TAP	25	312	4
TAP	25	336	3
TAP	25	360	2
TAP	26	24	2
TAP	26	48	3
TAP	26	72	4
TAP	26	120	4
TAP	26	144	3
TAP	26	168	2
TAP	26	192	0
TAP	26	192	1
TAP	26	228	0
TAP	26	228	1
TAP	26	264	2
TAP	26	264	7
TAP	27	0	4
STR	27	0	5
SCR	27	0	5	96	48	0
TAP	27	48	3
TAP	27	96	2
STR	27	192	2
SCL	27	192	2	96	48	7
TAP	27	192	3
TAP	27	240	4
TAP	27	288	5
STR	28	0	6
SI_	28	0	6	96	48	3
TAP	28	48	6
STR	28	96	1
SI_	28	96	1	96	48	4
TAP	28	144	1
STR	28	192	7
SI_	28	192	7	96	48	3
TAP	28	240	7
TAP	28	288	0
TAP	29	0	2
TAP	29	48	3
TAP	29	96	4
HLD	29	96	5	72
TAP	29	168	6
TAP	29	216	5
TAP	29	264	3
TAP	29	264	4
TAP	29	288	3
TAP	29	288	4
HLD	30	0	4	48
TAP	30	48	3
HLD	30	96	2	48
TAP	30	144	3
HLD	30	192	5	48
TAP	30	240	3
HLD	30	288	1	48
TAP	30	336	3
TAP	31	0	5
TAP	31	48	4
HLD	31	96	2	72
TAP	31	96	3
TAP	31	168	1
TAP	31	216	2
TAP	31	264	3
TAP	31	264	4
TAP	31	288	3
TAP	31	288	4
HLD	32	0	3	48
TAP	32	48	4
HLD	32	96	5	48
TAP	32	144	4
HLD	32	192	2	48
TAP	32	240	4
HLD	32	288	6	48
TAP	32	336	4
TAP	33	0	1
TAP	33	48	0
HLD	33	96	6	72
TAP	33	96	7
TAP	33	168	5
TAP	33	216	6
TAP	33	264	0
TAP	33	264	7
TAP	33	288	0
TAP	33	288	7
HLD	34	0	0	48
TAP	34	48	7
HLD	34	96	6	48
TAP	34	144	7
HLD	34	192	1	48
TAP	34	240	7
HLD	34	288	5	48
TAP	34	336	7
TAP	35	0	1
TAP	35	48	0
HLD	35	96	6	72
TAP	35	96	7
TAP	35	168	5
TAP	35	216	6
TAP	35	264	0
TAP	35	264	7
TAP	35	288	0
TAP	35	288	7
HLD	36	0	7	48
TAP	36	48	0
HLD	36	96	1	48
TAP	36	144	0
HLD	36	192	6	48
TAP	36	240	0
HLD	36	288	2	48
TAP	36	336	0
TAP	37	0	5
TAP	37	48	5
TAP	37	96	4
TAP	37	96	6
TAP	37	144	2
TAP	37	192	1
TAP	37	192	3
TAP	37	240	7
TAP	37	288	0
TAP	37	336	1
TAP	37	336	6
TAP	38	0	2
TAP	38	48	2
TAP	38	96	1
TAP	38	96	3
TAP	38	144	5
TAP	38	192	4
TAP	38	192	6
TAP	38	240	3
TAP	38	288	4
TAP	38	336	2
TAP	38	336	5
HLD	39	0	0	48
HLD	39	0	7	48
HLD	39	72	1	48
HLD	39	72	2	48
TAP	39	144	3
TAP	39	144	4
TAP	39	192	6
TAP	39	192	7
TAP	39	228	6
TAP	39	228	7
TAP	39	264	0
TAP	39	264	5
TAP	39	312	4
TAP	39	336	3
TAP	39	360	2
TAP	40	24	2
TAP	40	48	3
TAP	40	72	4
TAP	40	120	4
TAP	40	144	3
TAP	40	168	2
TAP	40	192	0
TAP	40	192	1
TAP	40	228	0
TAP	40	228	1
TAP	40	264	2
TAP	40	264	7
HLD	41	0	1	72
HLD	41	72	2	72
TAP	41	144	3
TAP	41	192	4
TAP	41	192	5
TAP	41	228	4
TAP	41	228	5
TAP	41	264	3
TAP	41	264	6
TAP	41	312	5
TAP	41	336	4
TAP	41	360	3
TAP	42	24	3
TAP	42	48	4
TAP	42	72	5
TAP	42	120	5
TAP	42	144	4
TAP	42	168	3
TAP	42	192	2
TAP	42	192	3
TAP	42	228	2
TAP	42	228	3
TAP	42	264	1
TAP	42	264	4
HLD	43	0	0	48
HLD	43	0	7	48
HLD	43	72	5	48
HLD	43	72	6	48
TAP	43	144	3
TAP	43	144	4
TAP	43	192	0
TAP	43	192	1
TAP	43	228	0
TAP	43	228	1
TAP	43	264	2
TAP	43	264	7
TAP	43	312	3
TAP	43	336	4
TAP	43	360	5
TAP	44	24	5
TAP	44	48	4
TAP	44	72	3
TAP	44	120	3
TAP	44	144	4
TAP	44	168	5
TAP	44	192	6
TAP	44	192	7
TAP	44	228	6
TAP	44	228	7
TAP	44	264	0
TAP	44	264	5
TAP	45	0	2
TAP	45	0	3
TAP	45	48	3
TAP	45	48	4
HLD	45	96	4	72
HLD	45	96	5	72
TAP	45	216	4
TAP	45	216	5
TAP	45	264	2
TAP	45	264	3
TAP	45	288	2
TAP	45	288	3
TAP	46	0	0
TAP	46	0	7
TAP	46	48	1
TAP	46	48	6
HLD	46	96	2	72
HLD	46	96	5	72
TAP	46	216	1
TAP	46	216	6
TAP	46	264	3
TAP	46	264	4
HLD	46	288	3	768
HLD	46	288	4	768
BRK	48	336	3
BRK	48	336	4
STR	49	0	2
SCL	49	0	2	96	48	7
TAP	49	48	6
TAP	49	96	5
STR	49	192	6
SCL	49	192	6	96	48	3
TAP	49	240	2
TAP	49	288	1
STR	50	0	1
SCL	50	0	1	96	48	6
TAP	50	48	5
TAP	50	96	4
STR	50	192	4
SCL	50	192	4	96	48	1
TAP	50	240	0
TAP	50	288	7
STR	51	0	5
SCR	51	0	5	96	48	0
TAP	51	48	1
TAP	51	96	2
STR	51	192	1
SCR	51	192	1	96	48	4
TAP	51	240	5
TAP	51	288	6
STR	52	0	6
SCR	52	0	6	96	48	1
TAP	52	48	2
TAP	52	96	3
STR	52	192	3
SCR	52	192	3	96	48	6
TAP	52	240	7
TAP	52	288	0
TAP	52	336	1

T_REC_TAP	344
T_REC_BRK	2
T_REC_XTP	0
T_REC_HLD	63
T_REC_XHO	0
T_REC_STR	36
T_REC_BST	0
T_REC_XST	0
T_REC_TTP	0
T_REC_THO	0
T_REC_SLD	36
T_REC_ALL	481
T_NUM_TAP	380
T_NUM_BRK	2
T_NUM_HLD	63
T_NUM_SLD	36
T_NUM_ALL	481
T_JUDGE_TAP	382
T_JUDGE_HLD	224
T_JUDGE_SLD	36
T_JUDGE_ALL	642
TTM_EACHPAIRS	112
TTM_SCR_TAP	190000
TTM_SCR_BRK	5200
TTM_SCR_HLD	63000
TTM_SCR_SLD	54000
TTM_SCR_ALL	312200
TTM_SCR_S	302650
TTM_SCR_SS	312000
TTM_RAT_ACV	10006

