VERSION	0.00.00	1.03.00
FES_MODE	0
BPM_DEF	 95.000	 95.000	 95.000	 95.000
MET_DEF	4	4
RESOLUTION	384
CLK_DEF	384
COMPATIBLE_CODE	MA2

BPM	0	0	 95.000
MET	0	0	4	4

STR	5	0	0
SI_	5	0	0	96	96	5
STR	5	0	1
SI_	5	0	1	96	96	4
STR	6	0	6
SI_	6	0	6	96	96	3
STR	6	0	7
SI_	6	0	7	96	96	2
STR	7	0	0
SI_	7	0	0	96	96	5
STR	7	0	1
SI_	7	0	1	96	96	4
STR	8	0	6
SI_	8	0	6	96	96	3
STR	8	0	7
SI_	8	0	7	96	96	2
BRK	8	288	3
BRK	8	288	4
HLD	9	0	2	96
TAP	9	96	3
TAP	9	192	2
TAP	9	288	1
TAP	9	288	3
HLD	10	0	5	96
TAP	10	96	4
TAP	10	192	5
TAP	10	288	4
TAP	10	288	6
HLD	11	0	2	96
TAP	11	96	3
HLD	11	192	5	96
TAP	11	288	4
TAP	12	0	2
STR	12	96	2
SI_	12	96	2	96	96	5
TAP	12	96	3
HLD	13	0	6	96
TAP	13	96	7
TAP	13	192	6
TAP	13	288	5
TAP	13	288	7
HLD	14	0	1	96
TAP	14	96	0
TAP	14	192	1
TAP	14	288	0
TAP	14	288	2
HLD	15	0	6	96
TAP	15	96	7
HLD	15	192	1	96
TAP	15	288	0
TAP	16	0	6
STR	16	96	6
SI_	16	96	6	96	96	1
TAP	16	96	7
HLD	17	0	3	96
TAP	17	96	4
HLD	17	192	2	96
TAP	17	288	3
HLD	18	0	1	96
TAP	18	96	2
HLD	18	192	0	96
HLD	18	192	7	96
HLD	19	0	4	96
TAP	19	96	3
HLD	19	192	5	96
TAP	19	288	4
HLD	20	0	6	96
TAP	20	96	5
HLD	20	192	0	96
HLD	20	192	7	96
BRK	21	0	1
BRK	21	0	6
TAP	21	96	2
TAP	21	144	2
TAP	21	192	3
TAP	21	288	1
TAP	21	288	4
TAP	22	0	6
TAP	22	0	7
TAP	22	96	5
TAP	22	144	5
TAP	22	192	4
TAP	22	288	3
TAP	22	288	6
TAP	23	0	0
TAP	23	0	1
TAP	23	96	2
TAP	23	144	2
TAP	23	192	3
TAP	23	288	1
TAP	23	288	4
HLD	24	0	4	96
HLD	24	96	5	96
HLD	24	192	6	96
TAP	24	288	7
HLD	25	0	1	96
TAP	25	0	6
STR	25	96	0
SSL	25	96	0	96	96	4
TAP	26	0	1
HLD	26	0	6	96
STR	26	96	7
SSR	26	96	7	96	96	3
BRK	27	0	1
BRK	27	0	6
TAP	27	96	3
TAP	27	96	4
TAP	27	192	2
TAP	27	192	5
TAP	27	288	1
TAP	27	288	6
STR	28	0	0
SXL	28	0	0	96	192	3
STR	28	0	7
SXR	28	0	7	96	192	4
HLD	29	0	3	288
TAP	29	0	4
TAP	29	192	4
TAP	29	288	4
TAP	30	0	3
HLD	30	0	4	288
TAP	30	192	3
TAP	30	288	3
HLD	31	0	2	288
TAP	31	0	3
TAP	31	192	3
TAP	31	288	3
STR	32	0	4
SI_	32	0	4	96	96	1
TAP	32	0	5
TAP	32	288	0
TAP	32	288	1
TAP	33	0	0
HLD	33	0	7	288
TAP	33	192	0
TAP	33	288	0
HLD	34	0	0	288
TAP	34	0	7
TAP	34	192	7
TAP	34	288	7
HLD	35	0	6	288
TAP	35	0	7
TAP	35	192	7
TAP	35	288	7
STR	36	0	0
SI_	36	0	0	96	96	5
TAP	36	0	1
TAP	36	288	4
TAP	36	288	5
HLD	37	0	7	96
HLD	37	96	6	96
HLD	37	192	5	96
HLD	37	288	4	96
HLD	38	0	3	96
HLD	38	96	2	96
HLD	38	192	1	96
TAP	38	288	0
BRK	39	0	1
BRK	39	0	6
TAP	39	96	6
TAP	39	144	6
TAP	39	192	7
TAP	39	288	0
TAP	39	288	5
TAP	40	0	2
TAP	40	0	3
TAP	40	96	1
TAP	40	144	1
TAP	40	192	0
TAP	40	288	2
TAP	40	288	7
TAP	41	0	4
TAP	41	0	5
TAP	41	96	6
TAP	41	144	6
TAP	41	192	7
TAP	41	288	0
TAP	41	288	5
HLD	42	0	3	96
HLD	42	96	2	96
HLD	42	192	1	96
TAP	42	288	0
TAP	43	0	1
HLD	43	0	6	96
STR	43	96	7
SSR	43	96	7	96	96	3
HLD	44	0	1	96
TAP	44	0	6
STR	44	96	0
SSL	44	96	0	96	96	4
BRK	45	0	1
BRK	45	0	6
TAP	45	96	2
TAP	45	96	5
TAP	45	192	3
TAP	45	192	4
TAP	45	240	3
TAP	45	240	4
TAP	45	288	2
TAP	45	288	5
STR	46	0	0
SXL	46	0	0	96	192	3
STR	46	0	7
SXR	46	0	7	96	192	4
HLD	47	0	3	672
HLD	47	0	4	672
HLD	49	0	5	288
TAP	49	96	4
TAP	49	288	4
HLD	50	0	2	288
TAP	50	96	3
TAP	50	288	3
HLD	51	0	5	288
TAP	51	96	4
TAP	51	288	4
HLD	52	0	2	288
TAP	52	96	3
TAP	52	288	3
TAP	52	336	2
TAP	52	336	3

T_REC_TAP	123
T_REC_BRK	10
T_REC_XTP	0
T_REC_HLD	47
T_REC_XHO	0
T_REC_STR	20
T_REC_BST	0
T_REC_XST	0
T_REC_TTP	0
T_REC_THO	0
T_REC_SLD	20
T_REC_ALL	220
T_NUM_TAP	143
T_NUM_BRK	10
T_NUM_HLD	47
T_NUM_SLD	20
T_NUM_ALL	220
T_JUDGE_TAP	153
T_JUDGE_HLD	316
T_JUDGE_SLD	20
T_JUDGE_ALL	489
TTM_EACHPAIRS	52
TTM_SCR_TAP	71500
TTM_SCR_BRK	26000
TTM_SCR_HLD	47000
TTM_SCR_SLD	30000
TTM_SCR_ALL	174500
TTM_SCR_S	168300
TTM_SCR_SS	173500
TTM_RAT_ACV	10057

