VERSION	0.00.00	1.03.00
FES_MODE	0
BPM_DEF	 95.000	 95.000	 95.000	 95.000
MET_DEF	4	4
RESOLUTION	384
CLK_DEF	384
COMPATIBLE_CODE	MA2

BPM	0	0	 95.000
MET	0	0	4	4

TAP	5	0	7
TAP	5	96	7
TAP	5	192	7
TAP	6	0	6
TAP	6	96	6
TAP	6	192	6
TAP	7	0	5
TAP	7	96	5
TAP	7	192	5
TAP	8	0	4
TAP	8	96	4
TAP	8	192	3
TAP	8	192	4
HLD	9	0	3	192
HLD	10	0	2	192
HLD	11	0	1	192
HLD	12	0	0	192
TAP	13	0	7
TAP	13	96	7
TAP	13	192	7
TAP	14	0	0
TAP	14	96	0
TAP	14	192	0
TAP	15	0	1
TAP	15	96	1
TAP	15	192	1
TAP	16	0	2
TAP	16	96	2
TAP	16	192	2
STR	17	0	3
SI_	17	0	3	96	288	0
STR	19	0	4
SI_	19	0	4	96	288	7
BRK	21	0	0
TAP	21	96	0
TAP	21	192	0
TAP	22	0	7
TAP	22	96	7
TAP	22	192	0
TAP	22	192	7
TAP	23	0	6
TAP	23	96	6
TAP	23	192	6
TAP	24	0	5
TAP	24	96	5
TAP	24	192	4
TAP	24	192	5
BRK	25	0	4
TAP	25	96	4
TAP	25	192	4
TAP	26	0	3
TAP	26	96	3
TAP	26	192	3
TAP	26	192	4
HLD	27	0	2	192
HLD	28	0	1	192
TAP	29	0	0
TAP	29	96	7
TAP	29	192	0
TAP	29	192	7
HLD	30	0	1	192
TAP	31	0	2
TAP	31	96	3
TAP	31	192	2
TAP	31	192	3
HLD	32	0	4	192
TAP	33	0	5
TAP	33	96	4
TAP	33	192	4
TAP	33	192	5
HLD	34	0	6	192
TAP	35	0	7
TAP	35	96	0
TAP	35	192	0
TAP	35	192	7
HLD	36	0	1	192
TAP	37	0	1
TAP	37	96	1
TAP	37	192	0
TAP	37	192	1
TAP	38	0	6
TAP	38	96	6
TAP	38	192	6
TAP	38	192	7
BRK	39	0	6
TAP	39	96	6
TAP	39	192	5
TAP	39	288	5
TAP	40	0	4
TAP	40	96	4
TAP	40	192	3
TAP	40	192	4
TAP	41	0	3
TAP	41	96	3
TAP	41	192	2
TAP	41	288	2
TAP	42	0	1
TAP	42	96	1
TAP	42	192	0
TAP	42	192	1
BRK	43	0	0
TAP	43	96	0
TAP	43	192	1
TAP	43	288	1
TAP	44	0	2
TAP	44	96	2
TAP	44	192	2
TAP	44	192	3
TAP	45	0	3
TAP	45	96	3
TAP	45	192	4
TAP	45	288	4
TAP	46	0	5
TAP	46	96	5
TAP	46	192	4
TAP	46	192	5
HLD	47	0	6	192
HLD	48	0	7	192
TAP	49	0	0
TAP	49	96	0
TAP	49	192	0
TAP	50	0	7
TAP	50	96	7
TAP	50	192	6
TAP	50	192	7
TAP	51	0	5
TAP	51	96	5
TAP	51	192	5
TAP	52	0	4
TAP	52	96	4
TAP	52	192	3
TAP	52	192	4
TAP	52	288	3
TAP	52	288	4

T_REC_TAP	114
T_REC_BRK	4
T_REC_XTP	0
T_REC_HLD	12
T_REC_XHO	0
T_REC_STR	2
T_REC_BST	0
T_REC_XST	0
T_REC_TTP	0
T_REC_THO	0
T_REC_SLD	2
T_REC_ALL	134
T_NUM_TAP	116
T_NUM_BRK	4
T_NUM_HLD	12
T_NUM_SLD	2
T_NUM_ALL	134
T_JUDGE_TAP	120
T_JUDGE_HLD	96
T_JUDGE_SLD	2
T_JUDGE_ALL	218
TTM_EACHPAIRS	17
TTM_SCR_TAP	58000
TTM_SCR_BRK	10400
TTM_SCR_HLD	12000
TTM_SCR_SLD	3000
TTM_SCR_ALL	83400
TTM_SCR_S	80550
TTM_SCR_SS	83000
TTM_RAT_ACV	10048

