VERSION	0.00.00	1.03.00
FES_MODE	0
BPM_DEF	242.000	242.000	242.000	242.000
MET_DEF	4	4
RESOLUTION	384
CLK_DEF	384
COMPATIBLE_CODE	MA2

BPM	0	0	242.000
MET	0	0	4	4

TAP	2	0	3
TAP	2	96	3
TAP	2	96	4
TAP	2	192	3
TAP	2	288	3
TAP	2	288	4
TAP	2	352	3
TAP	3	64	3
TAP	3	96	4
TAP	3	192	3
TAP	3	288	3
TAP	3	288	4
TAP	4	0	2
TAP	4	96	2
TAP	4	96	3
TAP	4	192	2
TAP	4	288	2
TAP	4	288	3
TAP	4	352	2
TAP	5	64	2
TAP	5	96	3
TAP	5	192	2
TAP	5	288	2
TAP	5	288	3
TAP	6	0	4
TAP	6	96	3
TAP	6	96	4
TAP	6	192	4
TAP	6	288	3
TAP	6	288	4
TAP	6	352	4
TAP	7	64	4
TAP	7	96	3
TAP	7	192	4
TAP	7	288	3
TAP	7	288	4
TAP	8	0	5
TAP	8	96	4
TAP	8	96	5
TAP	8	192	5
TAP	8	288	4
TAP	8	288	5
TAP	8	352	5
TAP	9	64	5
TAP	9	96	4
TAP	9	192	5
TAP	9	288	2
TAP	9	288	3
BRK	10	0	1
TAP	10	0	5
TAP	10	96	4
TAP	10	96	5
TAP	10	192	2
TAP	10	192	5
TAP	10	288	4
TAP	10	288	5
TAP	10	352	5
TAP	11	0	4
TAP	11	64	4
TAP	11	96	3
TAP	11	160	3
TAP	11	192	2
TAP	11	288	0
TAP	11	288	7
TAP	12	0	2
TAP	12	0	6
TAP	12	96	2
TAP	12	96	3
TAP	12	192	2
TAP	12	192	5
TAP	12	288	2
TAP	12	288	3
TAP	12	352	2
TAP	13	0	3
TAP	13	64	3
TAP	13	96	4
TAP	13	160	4
TAP	13	192	5
TAP	13	288	0
TAP	13	288	7
TAP	14	0	1
TAP	14	0	5
TAP	14	96	4
TAP	14	96	5
TAP	14	192	2
TAP	14	192	5
TAP	14	288	4
TAP	14	288	5
TAP	14	352	5
TAP	15	0	4
TAP	15	64	4
TAP	15	96	3
TAP	15	160	3
TAP	15	192	2
TAP	15	288	0
TAP	15	288	7
TAP	16	0	1
TAP	16	64	1
TAP	16	96	2
TAP	16	160	2
TAP	16	192	3
TAP	16	256	3
TAP	16	288	4
TAP	16	352	4
TAP	17	0	5
TAP	17	64	5
TAP	17	96	6
BRK	17	192	0
BRK	17	192	7
HLD	18	0	2	384
TAP	18	96	3
TAP	18	192	4
TAP	18	288	3
HLD	19	0	4	384
TAP	19	96	3
TAP	19	192	2
TAP	19	288	3
HLD	20	0	2	192
TAP	20	96	3
HLD	20	192	4	192
TAP	20	288	3
HLD	21	0	2	96
TAP	21	96	3
TAP	21	160	1
TAP	21	160	4
HLD	22	0	5	384
TAP	22	96	4
TAP	22	192	3
TAP	22	288	4
HLD	23	0	3	384
TAP	23	96	4
TAP	23	192	5
TAP	23	288	4
HLD	24	0	5	192
TAP	24	96	4
HLD	24	192	3	96
TAP	24	288	4
TAP	24	352	2
TAP	24	352	5
TAP	25	96	5
TAP	25	192	6
TAP	25	288	0
TAP	25	288	7
TAP	26	0	2
TAP	26	64	2
TAP	26	96	3
TAP	26	160	3
TAP	26	192	2
TAP	26	288	1
TAP	26	288	4
TAP	27	0	5
TAP	27	64	5
TAP	27	96	4
TAP	27	160	4
TAP	27	192	5
TAP	27	256	4
TAP	27	256	5
TAP	27	352	3
TAP	27	352	6
TAP	28	96	2
TAP	28	96	3
TAP	28	192	2
TAP	28	288	2
TAP	28	288	4
TAP	29	0	5
TAP	29	96	4
TAP	29	96	5
TAP	29	192	5
TAP	29	288	3
TAP	29	288	5
TAP	30	0	4
TAP	30	64	4
TAP	30	96	3
TAP	30	160	3
TAP	30	192	4
TAP	30	288	2
TAP	30	288	5
TAP	31	0	1
HLD	31	0	6	96
TAP	31	96	4
TAP	31	160	4
TAP	31	192	5
TAP	31	256	5
TAP	31	288	6
TAP	31	352	6
STR	32	0	7
SI_	32	0	7	96	32	3
TAP	32	64	0
TAP	32	96	7
STR	32	192	1
SI_	32	192	1	96	32	4
TAP	32	256	0
TAP	32	288	1
STR	33	0	6
SI_	33	0	6	96	32	3
TAP	33	64	7
TAP	33	96	6
STR	33	192	0
SI_	33	192	0	96	32	4
TAP	33	256	7
TAP	33	288	0
STR	34	0	5
SUL	34	0	5	96	288	3
TAP	34	192	0
STR	35	0	2
SUR	35	0	2	96	288	4
TAP	35	192	7
STR	36	0	5
SUL	36	0	5	96	288	3
TAP	36	192	0
HLD	37	0	2	256
TAP	37	96	0
TAP	37	192	0
TAP	37	256	0
STR	38	0	6
SXL	38	0	6	96	288	3
TAP	38	192	2
STR	39	0	1
SXR	39	0	1	96	288	4
TAP	39	192	5
HLD	40	0	5	288
TAP	40	96	4
TAP	40	192	4
TAP	40	288	4
TAP	41	0	2
TAP	41	0	3
TAP	41	96	3
TAP	41	96	4
TAP	41	192	4
TAP	41	192	5
TAP	41	288	6
TAP	41	336	6
STR	42	0	2
SUR	42	0	2	96	288	4
TAP	42	192	7
STR	43	0	5
SUL	43	0	5	96	288	3
TAP	43	192	0
STR	44	0	2
SUR	44	0	2	96	288	4
TAP	44	192	7
HLD	45	0	5	256
TAP	45	96	7
TAP	45	192	7
TAP	45	256	7
STR	46	0	1
SXR	46	0	1	96	288	4
TAP	46	192	5
STR	47	0	6
SXL	47	0	6	96	288	3
TAP	47	192	2
TAP	48	0	2
TAP	48	96	3
TAP	48	192	4
HLD	48	288	5	288
HLD	48	336	2	240
TAP	50	0	0
TAP	50	0	2
TAP	50	96	3
TAP	50	96	4
TAP	50	192	5
TAP	50	192	7
STR	50	288	3
SI_	50	288	3	96	96	0
STR	50	288	4
SI_	50	288	4	96	96	7
TAP	50	336	3
TAP	50	336	4
BRK	51	192	1
BRK	51	192	6
TAP	52	0	2
TAP	52	0	3
TAP	52	96	0
TAP	52	96	7
TAP	52	192	6
TAP	52	256	6
TAP	52	288	7
TAP	52	352	0
STR	52	352	5
SCL	52	352	5	96	56	2
TAP	53	96	0
TAP	53	192	1
TAP	53	256	1
TAP	53	288	0
STR	53	352	2
SCR	53	352	2	96	56	5
TAP	53	352	7
TAP	54	96	7
TAP	54	192	6
TAP	54	256	6
HLD	54	288	7	96
TAP	55	0	6
TAP	55	64	6
TAP	55	64	7
TAP	55	160	0
TAP	55	160	5
TAP	55	256	1
TAP	55	256	4
TAP	55	352	2
STR	55	352	3
SI_	55	352	3	96	56	7
BRK	56	96	0
TAP	56	192	1
TAP	56	256	1
TAP	56	288	0
TAP	57	0	6
TAP	57	64	6
TAP	57	96	7
HLD	57	160	0	128
HLD	57	160	5	128
STR	58	0	0
SI_	58	0	0	96	48	4
STR	58	96	7
SI_	58	96	7	96	48	3
STR	58	192	1
SI_	58	192	1	96	48	5
STR	58	288	4
SCR	58	288	4	96	192	3
HLD	59	0	0	144
BRK	59	288	1
BRK	59	288	6
TAP	60	0	4
TAP	60	0	5
TAP	60	96	0
TAP	60	96	7
TAP	60	192	1
TAP	60	256	1
TAP	60	288	0
STR	60	352	2
SCR	60	352	2	96	56	5
TAP	60	352	7
TAP	61	96	7
TAP	61	192	6
TAP	61	256	6
TAP	61	288	7
TAP	61	352	0
STR	61	352	5
SCL	61	352	5	96	56	2
TAP	62	96	0
TAP	62	192	1
TAP	62	256	1
HLD	62	288	0	96
TAP	63	0	1
TAP	63	64	0
TAP	63	64	1
TAP	63	160	2
TAP	63	160	7
TAP	63	256	3
TAP	63	256	6
STR	63	352	4
SI_	63	352	4	96	64	0
TAP	63	352	5
BRK	64	96	7
TAP	64	192	6
TAP	64	256	6
TAP	64	288	7
TAP	65	0	1
TAP	65	64	1
TAP	65	96	0
HLD	65	160	2	128
HLD	65	160	7	128
TAP	66	0	0
STR	66	0	1
SI_	66	0	1	96	48	4
TAP	66	96	7
STR	66	192	6
SI_	66	192	6	96	48	3
TAP	66	192	7
TAP	66	288	0
TAP	67	0	0
STR	67	0	1
SCR	67	0	1	96	48	4
TAP	67	96	7
STR	67	192	6
SCL	67	192	6	96	48	3
TAP	67	192	7
TAP	67	288	0
BRK	68	0	1
BRK	68	0	6
TAP	68	192	6
TAP	68	192	7
TAP	69	0	3
TAP	69	0	4
TAP	69	192	0
TAP	69	192	1
TAP	70	0	3
TAP	70	0	4
TAP	70	96	6
TAP	70	96	7
TAP	70	192	3
TAP	70	192	4
TAP	70	288	0
TAP	70	288	1
TAP	71	0	3
TAP	71	0	4
TAP	71	96	6
TAP	71	96	7
TAP	71	192	3
TAP	71	192	4
TAP	71	288	0
TAP	71	288	1
HLD	72	0	5	64
TAP	72	64	4
TAP	72	96	5
HLD	72	192	2	64
TAP	72	256	3
TAP	72	288	2
HLD	73	0	5	64
TAP	73	64	4
TAP	73	96	5
HLD	73	192	2	64
TAP	73	256	3
TAP	73	288	2
HLD	74	0	5	64
TAP	74	64	4
TAP	74	96	5
TAP	74	160	3
TAP	74	192	4
TAP	75	0	3
TAP	75	0	4
TAP	75	96	2
TAP	75	96	5
BRK	75	192	0
BRK	75	192	7
TAP	76	0	4
TAP	76	0	5
TAP	76	192	6
TAP	76	192	7
TAP	77	0	2
TAP	77	0	3
TAP	77	192	0
TAP	77	192	1
TAP	78	0	4
TAP	78	0	5
TAP	78	96	6
TAP	78	96	7
TAP	78	192	2
TAP	78	192	3
TAP	78	288	0
TAP	78	288	1
TAP	79	0	4
TAP	79	0	5
TAP	79	96	6
TAP	79	96	7
TAP	79	192	2
TAP	79	192	3
TAP	79	288	0
TAP	79	288	1
HLD	80	0	5	64
TAP	80	64	4
TAP	80	96	6
HLD	80	192	2	64
TAP	80	256	3
TAP	80	288	1
HLD	81	0	5	64
TAP	81	64	4
TAP	81	96	6
HLD	81	192	2	64
TAP	81	256	3
TAP	81	288	1
TAP	82	0	5
TAP	82	64	5
TAP	82	96	4
TAP	82	160	4
TAP	82	192	3
TAP	82	256	3
TAP	82	288	2
TAP	82	288	3
STR	83	0	3
SI_	83	0	3	96	96	0
STR	83	0	4
SI_	83	0	4	96	96	7
STR	84	0	3
SI_	84	0	3	96	96	7
TAP	84	0	4
TAP	84	192	6
TAP	85	0	3
STR	85	0	4
SI_	85	0	4	96	96	0
TAP	85	192	1
STR	86	0	3
SI_	86	0	3	96	48	7
TAP	86	0	4
TAP	86	96	6
TAP	86	192	3
STR	86	192	4
SI_	86	192	4	96	48	0
TAP	86	288	1
STR	87	0	3
SI_	87	0	3	96	48	7
TAP	87	0	4
TAP	87	96	6
TAP	87	192	3
STR	87	192	4
SI_	87	192	4	96	48	0
TAP	87	288	1
HLD	88	0	6	64
TAP	88	64	7
TAP	88	96	5
HLD	88	192	1	64
TAP	88	256	0
TAP	88	288	2
HLD	89	0	6	64
TAP	89	64	7
TAP	89	96	5
HLD	89	192	1	64
TAP	89	256	0
TAP	89	288	2
TAP	90	0	3
TAP	90	0	4
TAP	90	64	3
TAP	90	96	4
TAP	90	160	2
TAP	90	192	5
TAP	90	256	1
TAP	90	288	6
TAP	90	352	0
TAP	91	0	0
TAP	91	0	7
BRK	91	128	1
BRK	91	128	6
TAP	92	0	2
HLD	92	96	2	288
TAP	93	0	3
HLD	93	96	3	288
TAP	94	0	4
HLD	94	96	4	288
TAP	95	0	5
TAP	95	64	5
TAP	95	160	4
TAP	95	160	5
TAP	95	256	3
TAP	95	256	4
TAP	95	352	2
TAP	95	352	3
HLD	96	192	2	192
HLD	97	0	3	192
HLD	97	192	4	192
TAP	98	0	5
TAP	99	0	0
TAP	99	64	0
TAP	99	96	7
TAP	99	160	7
TAP	99	192	1
TAP	99	192	6
BRK	99	240	0
BRK	99	240	7
TAP	100	0	0
TAP	100	0	7
TAP	100	96	2
TAP	100	96	5
TAP	100	192	5
TAP	100	256	5
TAP	100	288	4
TAP	100	352	3
STR	100	352	6
SCR	100	352	6	96	56	1
TAP	101	96	3
TAP	101	192	2
TAP	101	256	2
TAP	101	288	3
STR	101	352	1
SCL	101	352	1	96	56	6
TAP	101	352	4
TAP	102	96	4
TAP	102	192	5
TAP	102	256	5
HLD	102	288	4	96
TAP	103	0	5
TAP	103	64	5
TAP	103	64	7
TAP	103	160	0
TAP	103	160	2
TAP	103	256	1
TAP	103	256	6
STR	103	352	3
SI_	103	352	3	96	64	7
TAP	103	352	4
BRK	104	96	0
TAP	104	192	1
TAP	104	256	1
TAP	104	288	0
TAP	105	0	6
TAP	105	64	6
TAP	105	96	7
HLD	105	160	0	128
HLD	105	160	5	128
STR	106	0	4
SI_	106	0	4	96	48	1
STR	106	0	5
SI_	106	0	5	96	48	0
STR	106	192	2
SI_	106	192	2	96	48	7
STR	106	192	3
SI_	106	192	3	96	48	6
STR	107	0	4
SF_	107	0	4	96	48	0
STR	107	192	3
SF_	107	192	3	96	48	7
BRK	108	0	1
BRK	108	0	5
TAP	108	192	2
TAP	108	256	2
TAP	108	288	3
TAP	108	352	3
TAP	109	0	4
TAP	109	64	4
TAP	109	96	5
TAP	109	160	5
TAP	109	192	6
TAP	109	288	0
TAP	109	288	7
TAP	110	0	6
TAP	110	64	6
TAP	110	96	5
TAP	110	160	5
TAP	110	192	4
TAP	110	256	4
TAP	110	288	3
TAP	110	352	3
TAP	111	0	2
TAP	111	64	2
TAP	111	96	1
TAP	111	160	1
TAP	111	192	0
TAP	111	288	0
TAP	111	288	7
TAP	112	0	1
TAP	112	64	1
TAP	112	96	2
TAP	112	160	2
TAP	112	192	3
TAP	112	256	3
TAP	112	288	4
TAP	112	352	4
TAP	113	0	5
TAP	113	64	5
TAP	113	96	6
TAP	113	160	6
TAP	113	192	7
TAP	113	288	0
TAP	113	288	7
TAP	114	0	6
TAP	114	64	6
TAP	114	96	4
TAP	114	160	4
TAP	114	192	3
TAP	114	256	3
TAP	114	288	1
TAP	114	352	1
TAP	115	0	7
TAP	115	32	0
TAP	115	64	6
TAP	115	96	1
TAP	115	128	5
TAP	115	160	2
TAP	115	192	3
TAP	115	192	4
BRK	115	288	1
BRK	115	288	6

T_REC_TAP	500
T_REC_BRK	22
T_REC_XTP	0
T_REC_HLD	44
T_REC_XHO	0
T_REC_STR	47
T_REC_BST	0
T_REC_XST	0
T_REC_TTP	0
T_REC_THO	0
T_REC_SLD	47
T_REC_ALL	660
T_NUM_TAP	547
T_NUM_BRK	22
T_NUM_HLD	44
T_NUM_SLD	47
T_NUM_ALL	660
T_JUDGE_TAP	569
T_JUDGE_HLD	85
T_JUDGE_SLD	47
T_JUDGE_ALL	701
TTM_EACHPAIRS	132
TTM_SCR_TAP	273500
TTM_SCR_BRK	57200
TTM_SCR_HLD	44000
TTM_SCR_SLD	70500
TTM_SCR_ALL	445200
TTM_SCR_S	429750
TTM_SCR_SS	443000
TTM_RAT_ACV	10049

