VERSION	0.00.00	1.03.00
FES_MODE	0
BPM_DEF	242.000	242.000	242.000	242.000
MET_DEF	4	4
RESOLUTION	384
CLK_DEF	384
COMPATIBLE_CODE	MA2

BPM	0	0	242.000
MET	0	0	4	4

TAP	2	0	3
TAP	2	96	3
HLD	2	192	3	144
TAP	2	336	4
HLD	3	48	4	144
TAP	3	192	3
BRK	3	288	1
TAP	4	0	4
TAP	4	96	4
HLD	4	192	4	144
TAP	4	336	3
HLD	5	48	3	144
TAP	5	192	4
BRK	5	288	6
TAP	6	0	2
TAP	6	96	2
HLD	6	192	2	144
TAP	6	336	3
HLD	7	48	3	144
TAP	7	192	2
BRK	7	288	1
TAP	8	0	5
TAP	8	96	5
HLD	8	192	5	144
TAP	8	336	4
HLD	9	48	4	144
TAP	9	192	5
BRK	9	288	6
TAP	10	0	0
TAP	10	0	1
TAP	10	96	0
TAP	10	96	1
TAP	10	192	2
TAP	10	192	7
TAP	10	336	2
TAP	10	336	3
HLD	11	48	2	144
TAP	11	48	3
TAP	11	192	3
TAP	11	288	1
TAP	11	288	4
TAP	12	0	6
TAP	12	0	7
TAP	12	96	6
TAP	12	96	7
TAP	12	192	0
TAP	12	192	5
TAP	12	336	4
TAP	12	336	5
TAP	13	48	4
HLD	13	48	5	144
TAP	13	192	4
TAP	13	288	3
TAP	13	288	6
TAP	14	0	0
TAP	14	0	1
TAP	14	96	0
TAP	14	96	1
TAP	14	192	2
TAP	14	192	7
TAP	14	336	2
TAP	14	336	3
HLD	15	48	2	144
TAP	15	48	3
TAP	15	192	3
TAP	15	288	1
TAP	15	288	4
TAP	16	0	2
TAP	16	96	2
TAP	16	96	3
TAP	16	192	5
TAP	16	288	4
TAP	16	288	5
TAP	17	0	3
TAP	17	48	4
TAP	17	96	3
TAP	17	144	4
BRK	17	192	3
TAP	18	0	2
TAP	18	96	3
TAP	18	192	2
TAP	18	288	1
TAP	18	288	4
TAP	19	0	5
TAP	19	96	4
TAP	19	192	5
TAP	19	288	3
TAP	19	288	6
TAP	20	0	2
TAP	20	96	3
TAP	20	192	2
TAP	20	288	1
TAP	20	288	4
STR	21	0	5
SCL	21	0	5	96	144	2
TAP	22	0	1
TAP	22	96	0
TAP	22	192	1
TAP	22	288	2
TAP	22	288	7
TAP	23	0	6
TAP	23	96	7
TAP	23	192	6
TAP	23	288	0
TAP	23	288	5
TAP	24	0	1
TAP	24	96	0
TAP	24	192	1
TAP	24	288	2
TAP	24	288	7
STR	25	0	2
SCR	25	0	2	96	144	5
TAP	26	0	5
TAP	26	48	4
TAP	26	96	5
TAP	26	144	4
TAP	26	192	5
TAP	26	288	3
TAP	26	288	6
TAP	27	0	2
TAP	27	48	3
TAP	27	96	2
TAP	27	144	3
TAP	27	192	2
TAP	27	288	1
TAP	27	288	4
TAP	28	0	4
TAP	28	96	3
TAP	28	96	5
TAP	28	192	3
TAP	28	288	2
TAP	28	288	4
TAP	29	0	5
TAP	29	96	4
TAP	29	96	6
TAP	29	192	2
TAP	29	288	1
TAP	29	288	3
TAP	30	0	1
TAP	30	48	0
TAP	30	96	1
TAP	30	144	0
TAP	30	192	1
TAP	30	288	2
TAP	30	288	7
TAP	31	0	6
TAP	31	48	7
TAP	31	96	6
TAP	31	144	7
TAP	31	192	6
TAP	31	288	0
TAP	31	288	5
TAP	32	0	4
TAP	32	96	3
TAP	32	96	5
TAP	32	192	3
TAP	32	288	2
TAP	32	288	4
TAP	33	0	5
TAP	33	96	4
TAP	33	96	6
TAP	33	192	2
TAP	33	288	1
TAP	33	288	3
STR	34	0	2
SI_	34	0	2	96	144	7
TAP	34	192	4
STR	35	0	5
SI_	35	0	5	96	144	0
TAP	35	192	3
STR	36	0	1
SCR	36	0	1	96	144	4
TAP	36	192	7
STR	37	0	6
SCL	37	0	6	96	144	3
TAP	37	192	0
STR	38	0	2
SI_	38	0	2	96	144	4
STR	38	192	6
SI_	38	192	6	96	144	3
STR	39	0	1
SI_	39	0	1	96	144	5
STR	39	192	7
SI_	39	192	7	96	144	3
TAP	40	0	0
TAP	40	96	1
TAP	40	192	2
TAP	40	192	3
TAP	41	0	4
TAP	41	96	5
TAP	41	192	6
TAP	41	192	7
STR	42	0	6
SI_	42	0	6	96	144	3
TAP	42	192	0
STR	43	0	1
SI_	43	0	1	96	144	4
TAP	43	192	7
STR	44	0	5
SCR	44	0	5	96	144	0
TAP	44	192	3
STR	45	0	2
SCL	45	0	2	96	144	7
TAP	45	192	4
STR	46	0	5
SI_	46	0	5	96	144	3
STR	46	192	1
SI_	46	192	1	96	144	4
STR	47	0	6
SI_	47	0	6	96	144	2
STR	47	192	0
SI_	47	192	0	96	144	4
TAP	48	0	7
TAP	48	96	6
HLD	48	192	4	192
HLD	48	192	5	192
TAP	49	192	1
TAP	49	192	7
TAP	50	0	0
TAP	50	96	1
HLD	50	192	2	192
HLD	50	192	3	192
BRK	51	192	0
BRK	51	192	6
TAP	52	0	2
TAP	52	0	5
TAP	52	96	1
TAP	52	96	4
STR	52	192	0
SF_	52	192	0	96	144	4
TAP	52	192	3
STR	53	192	7
SF_	53	192	7	96	144	3
TAP	54	192	0
TAP	54	192	7
TAP	54	288	1
TAP	54	288	6
TAP	55	0	1
TAP	55	64	0
TAP	55	160	2
TAP	55	160	7
TAP	55	256	3
TAP	55	256	6
TAP	55	352	4
TAP	55	352	5
TAP	56	96	0
TAP	56	192	2
TAP	56	192	3
TAP	56	288	7
STR	57	0	4
SI_	57	0	4	96	144	1
STR	57	0	5
SI_	57	0	5	96	144	0
HLD	58	0	6	96
TAP	58	96	7
HLD	58	192	1	96
TAP	58	288	0
STR	59	0	3
SCL	59	0	3	96	144	0
STR	59	0	7
SCL	59	0	7	96	144	4
TAP	60	0	2
TAP	60	0	5
TAP	60	96	3
TAP	60	96	6
TAP	60	192	4
STR	60	192	7
SF_	60	192	7	96	144	3
STR	61	192	0
SF_	61	192	0	96	144	4
TAP	62	192	0
TAP	62	192	7
TAP	62	288	1
TAP	62	288	6
TAP	63	0	6
TAP	63	64	7
TAP	63	160	0
TAP	63	160	5
TAP	63	256	1
TAP	63	256	4
TAP	63	352	2
TAP	63	352	3
TAP	64	96	7
TAP	64	192	4
TAP	64	192	5
TAP	64	288	0
STR	65	0	2
SI_	65	0	2	96	144	7
STR	65	0	3
SI_	65	0	3	96	144	6
TAP	66	0	6
BST	66	0	7
SSL	66	0	7	96	192	3
BST	67	0	0
SSL	67	0	0	96	192	4
TAP	67	0	7
TAP	68	0	0
BST	68	0	1
SSL	68	0	1	96	192	5
TAP	69	0	7
TAP	70	0	0
TAP	70	96	7
TAP	71	0	0
TAP	71	96	7
TAP	72	0	2
TAP	72	48	3
TAP	72	96	2
TAP	73	0	5
TAP	73	48	4
TAP	73	96	5
TAP	74	0	3
TAP	74	48	4
TAP	74	96	3
TAP	74	144	4
TAP	74	192	3
TAP	75	0	7
TAP	75	96	0
BRK	75	192	1
BRK	75	192	6
STR	76	0	0
SI_	76	0	0	96	144	5
STR	76	0	1
SI_	76	0	1	96	144	4
STR	77	0	6
SI_	77	0	6	96	144	3
STR	77	0	7
SI_	77	0	7	96	144	2
STR	78	0	0
SI_	78	0	0	96	144	4
STR	78	96	6
SI_	78	96	6	96	144	3
STR	79	0	1
SI_	79	0	1	96	144	4
STR	79	96	7
SI_	79	96	7	96	144	3
TAP	80	0	2
TAP	80	48	4
STR	80	96	2
SI_	80	96	2	96	144	7
TAP	81	0	5
TAP	81	48	3
STR	81	96	5
SI_	81	96	5	96	144	0
TAP	82	0	3
TAP	82	48	4
TAP	82	96	3
TAP	82	144	4
TAP	82	192	3
TAP	82	240	4
TAP	82	288	3
STR	83	0	3
SI_	83	0	3	96	144	0
STR	83	0	4
SI_	83	0	4	96	144	7
STR	84	0	0
SUR	84	0	0	96	144	5
STR	84	0	1
SCR	84	0	1	96	144	4
STR	85	0	6
SCL	85	0	6	96	144	3
STR	85	0	7
SUL	85	0	7	96	144	2
STR	86	0	1
SCR	86	0	1	96	144	4
STR	86	96	0
SUR	86	96	0	96	144	5
STR	87	0	7
SUL	87	0	7	96	144	2
STR	87	96	6
SCL	87	96	6	96	144	3
TAP	88	0	2
TAP	88	48	3
STR	88	96	2
SCL	88	96	2	96	144	6
TAP	89	0	5
TAP	89	48	4
STR	89	96	5
SCR	89	96	5	96	144	1
TAP	90	0	3
TAP	90	48	4
TAP	90	96	3
TAP	90	144	4
TAP	90	192	3
TAP	90	240	4
TAP	90	288	3
TAP	90	336	4
BST	91	0	3
SCL	91	0	3	96	240	4
TAP	92	0	7
TAP	92	96	7
TAP	93	0	6
TAP	93	96	6
TAP	94	0	5
TAP	94	96	5
TAP	95	0	4
TAP	95	96	4
HLD	96	0	3	192
HLD	96	192	2	192
HLD	97	0	1	192
TAP	97	192	0
TAP	98	0	2
TAP	98	0	3
TAP	98	96	4
TAP	98	96	5
TAP	98	192	6
TAP	98	192	7
TAP	98	288	0
TAP	98	288	1
STR	99	0	2
SCL	99	0	2	96	144	7
STR	99	0	3
SCR	99	0	3	96	144	6
TAP	100	0	3
TAP	100	0	5
TAP	100	96	2
TAP	100	96	4
STR	100	192	1
SXR	100	192	1	96	144	7
STR	100	192	3
SCR	100	192	3	96	144	6
STR	101	192	4
SCL	101	192	4	96	144	1
STR	101	192	6
SXL	101	192	6	96	144	0
TAP	102	192	7
TAP	102	256	0
TAP	102	288	7
TAP	103	0	6
TAP	103	0	7
TAP	103	64	6
TAP	103	64	7
TAP	103	160	0
TAP	103	160	5
TAP	103	256	1
TAP	103	256	4
TAP	103	352	2
TAP	103	352	3
TAP	104	96	7
TAP	104	192	4
TAP	104	192	5
TAP	104	288	0
TAP	105	0	2
STR	105	0	3
SF_	105	0	3	96	144	7
STR	106	0	1
SI_	106	0	1	96	144	4
TAP	106	96	1
STR	106	192	6
SI_	106	192	6	96	144	3
TAP	106	288	6
STR	107	0	0
SI_	107	0	0	96	144	4
TAP	107	96	0
STR	107	192	7
SI_	107	192	7	96	144	3
TAP	107	288	7
BRK	108	0	0
TAP	108	96	0
TAP	108	192	1
TAP	108	192	7
TAP	108	336	3
TAP	108	336	6
TAP	109	48	1
TAP	109	48	4
TAP	109	192	3
TAP	109	192	5
TAP	109	288	0
TAP	109	288	1
TAP	110	0	7
TAP	110	96	7
TAP	110	192	0
TAP	110	192	6
TAP	110	336	1
TAP	110	336	4
TAP	111	48	3
TAP	111	48	6
TAP	111	192	2
TAP	111	192	4
TAP	111	288	6
TAP	111	288	7
TAP	112	0	0
TAP	112	0	1
TAP	112	96	0
TAP	112	96	1
TAP	112	192	2
TAP	112	192	7
TAP	112	336	1
TAP	112	336	3
TAP	113	48	4
TAP	113	48	6
TAP	113	192	2
TAP	113	192	3
TAP	113	288	0
TAP	113	288	5
TAP	114	0	6
TAP	114	0	7
TAP	114	96	6
TAP	114	96	7
TAP	114	192	0
TAP	114	192	5
TAP	114	336	4
TAP	114	336	6
TAP	115	48	1
TAP	115	48	3
TAP	115	192	4
TAP	115	192	5
BRK	115	288	2
BRK	115	288	7

T_REC_TAP	346
T_REC_BRK	12
T_REC_XTP	0
T_REC_HLD	20
T_REC_XHO	0
T_REC_STR	61
T_REC_BST	4
T_REC_XST	0
T_REC_TTP	0
T_REC_THO	0
T_REC_SLD	65
T_REC_ALL	508
T_NUM_TAP	407
T_NUM_BRK	16
T_NUM_HLD	20
T_NUM_SLD	65
T_NUM_ALL	508
T_JUDGE_TAP	423
T_JUDGE_HLD	38
T_JUDGE_SLD	65
T_JUDGE_ALL	526
TTM_EACHPAIRS	114
TTM_SCR_TAP	203500
TTM_SCR_BRK	41600
TTM_SCR_HLD	20000
TTM_SCR_SLD	97500
TTM_SCR_ALL	362600
TTM_SCR_S	350200
TTM_SCR_SS	361000
TTM_RAT_ACV	10044

