VERSION	0.00.00	1.03.00
FES_MODE	0
BPM_DEF	242.000	242.000	242.000	242.000
MET_DEF	4	4
RESOLUTION	384
CLK_DEF	384
COMPATIBLE_CODE	MA2

BPM	0	0	242.000
MET	0	0	4	4

TAP	2	0	2
TAP	2	192	2
TAP	3	0	2
TAP	4	0	3
TAP	4	192	3
TAP	5	0	3
TAP	6	0	4
TAP	6	192	4
TAP	7	0	4
TAP	8	0	5
TAP	8	192	5
TAP	9	0	5
BRK	9	192	5
TAP	10	0	5
TAP	10	96	5
TAP	10	192	5
TAP	11	0	4
TAP	11	96	4
TAP	11	192	4
TAP	12	0	2
TAP	12	96	2
TAP	12	192	2
TAP	13	0	3
TAP	13	96	3
TAP	13	192	3
TAP	14	0	1
TAP	14	96	1
TAP	14	192	1
TAP	15	0	0
TAP	15	96	0
TAP	15	192	0
TAP	16	0	6
TAP	16	96	6
TAP	16	192	6
TAP	17	0	7
TAP	17	96	7
BRK	17	192	7
TAP	18	0	1
TAP	18	192	0
TAP	19	0	0
TAP	19	0	1
TAP	20	0	2
TAP	20	192	3
TAP	21	0	4
TAP	21	96	4
TAP	21	192	4
HLD	22	0	6	192
TAP	22	192	7
TAP	23	0	6
TAP	23	0	7
STR	24	0	5
SCL	24	0	5	96	288	2
TAP	26	0	1
TAP	26	192	0
TAP	26	192	1
TAP	27	0	0
TAP	27	0	1
TAP	28	0	2
TAP	28	192	3
TAP	29	0	4
TAP	29	96	4
TAP	29	192	4
HLD	30	0	6	192
TAP	30	192	7
TAP	31	0	6
TAP	31	0	7
TAP	32	0	4
TAP	32	0	5
TAP	32	192	2
TAP	32	192	3
TAP	33	0	3
TAP	33	0	4
TAP	33	192	2
TAP	33	192	5
HLD	34	0	5	192
TAP	34	192	4
HLD	35	0	2	192
TAP	35	192	3
HLD	36	0	6	192
TAP	36	192	5
TAP	37	0	5
TAP	37	0	6
HLD	38	0	1	192
TAP	38	192	2
HLD	39	0	6	192
TAP	39	192	7
HLD	40	0	1	192
TAP	40	192	0
TAP	41	0	0
TAP	41	0	7
HLD	42	0	1	192
TAP	42	192	0
HLD	43	0	6	192
TAP	43	192	7
HLD	44	0	2	192
TAP	44	192	1
TAP	45	0	1
TAP	45	0	2
HLD	46	0	5	192
TAP	46	192	6
HLD	47	0	2	192
TAP	47	192	3
HLD	48	0	5	192
TAP	48	192	4
TAP	49	0	3
TAP	49	0	4
STR	50	0	3
SXR	50	0	3	96	480	0
STR	50	0	4
SXL	50	0	4	96	480	7
BRK	52	0	1
TAP	52	96	1
TAP	52	192	0
TAP	52	192	1
TAP	53	0	6
TAP	53	96	6
TAP	53	192	6
TAP	53	192	7
TAP	54	0	0
TAP	54	96	0
TAP	54	192	7
TAP	54	288	7
TAP	55	0	0
TAP	55	0	7
TAP	55	96	0
TAP	55	96	7
TAP	55	192	1
TAP	55	192	6
TAP	56	0	5
TAP	56	96	5
TAP	56	192	4
TAP	56	192	5
TAP	57	0	2
TAP	57	96	2
TAP	57	192	2
TAP	57	192	3
TAP	58	0	5
TAP	58	96	5
TAP	58	192	4
TAP	58	288	4
TAP	59	0	3
TAP	59	0	4
TAP	59	96	3
TAP	59	96	4
TAP	59	192	2
TAP	59	192	5
BRK	60	0	6
TAP	60	96	6
TAP	60	192	6
TAP	60	192	7
TAP	61	0	1
TAP	61	96	1
TAP	61	192	0
TAP	61	192	1
TAP	62	0	7
TAP	62	96	7
TAP	62	192	0
TAP	62	288	0
TAP	63	0	0
TAP	63	0	7
TAP	63	96	0
TAP	63	96	7
TAP	63	192	1
TAP	63	192	6
TAP	64	0	2
TAP	64	96	2
TAP	64	192	2
TAP	64	192	3
TAP	65	0	5
TAP	65	96	5
TAP	65	192	4
TAP	65	192	5
TAP	66	0	2
TAP	66	0	3
TAP	66	192	0
TAP	66	192	1
TAP	67	0	6
TAP	67	0	7
TAP	67	192	4
TAP	67	192	5
TAP	68	0	3
TAP	68	0	4
TAP	68	192	6
TAP	69	0	3
TAP	69	0	4
TAP	69	192	1
TAP	70	0	3
TAP	70	96	3
TAP	70	192	6
TAP	71	0	4
TAP	71	96	4
TAP	71	192	1
TAP	72	0	2
TAP	72	96	2
TAP	72	192	4
TAP	72	288	4
TAP	73	0	3
TAP	73	96	3
TAP	73	192	5
TAP	73	288	5
TAP	74	0	3
TAP	74	96	3
TAP	74	192	3
TAP	74	192	4
TAP	75	0	3
TAP	75	0	4
BRK	75	192	2
BRK	75	192	5
TAP	76	0	3
TAP	76	0	4
TAP	76	192	1
TAP	77	0	3
TAP	77	0	4
TAP	77	192	6
TAP	78	0	4
TAP	78	96	4
TAP	78	192	1
TAP	79	0	3
TAP	79	96	3
TAP	79	192	6
TAP	80	0	5
TAP	80	96	5
TAP	80	192	3
TAP	80	288	3
TAP	81	0	4
TAP	81	96	4
TAP	81	192	2
TAP	81	288	2
TAP	82	0	4
TAP	82	96	4
STR	82	192	3
SCL	82	192	3	96	288	0
STR	82	192	4
SCR	82	192	4	96	288	7
TAP	84	0	0
TAP	84	0	7
TAP	84	192	5
TAP	85	0	0
TAP	85	0	7
TAP	85	192	2
TAP	86	0	0
TAP	86	96	0
TAP	86	192	5
TAP	87	0	7
TAP	87	96	7
TAP	87	192	2
TAP	88	0	1
TAP	88	96	1
TAP	88	192	7
TAP	88	288	7
TAP	89	0	0
TAP	89	96	0
TAP	89	192	6
TAP	89	288	6
TAP	90	0	0
TAP	90	96	0
TAP	90	192	0
TAP	90	192	7
HLD	91	0	1	192
HLD	91	0	6	192
HLD	92	0	2	384
HLD	93	0	3	384
HLD	94	0	4	384
TAP	95	0	5
HLD	96	0	5	384
HLD	97	0	4	384
TAP	98	0	3
TAP	99	0	3
TAP	99	0	4
TAP	99	192	1
TAP	99	192	6
BRK	100	0	1
TAP	100	96	1
TAP	100	192	0
TAP	100	192	1
TAP	101	0	6
TAP	101	96	6
TAP	101	192	6
TAP	101	192	7
TAP	102	0	0
TAP	102	96	0
TAP	102	192	7
TAP	102	288	7
TAP	103	0	0
TAP	103	0	7
TAP	103	96	0
TAP	103	96	7
TAP	103	192	1
TAP	103	192	6
TAP	104	0	5
TAP	104	96	5
TAP	104	192	4
TAP	104	192	5
TAP	105	0	2
TAP	105	96	2
TAP	105	192	2
TAP	105	192	3
TAP	106	0	4
TAP	106	0	5
TAP	106	192	6
TAP	106	192	7
TAP	107	0	0
TAP	107	0	1
TAP	107	192	2
TAP	107	192	3
TAP	108	0	0
TAP	108	96	0
TAP	108	192	1
TAP	108	288	1
TAP	109	0	2
TAP	109	96	2
TAP	109	192	3
TAP	109	288	3
TAP	110	0	4
TAP	110	96	4
TAP	110	192	5
TAP	110	288	5
TAP	111	0	6
TAP	111	96	6
TAP	111	192	6
TAP	111	192	7
TAP	112	0	7
TAP	112	96	7
TAP	112	192	6
TAP	112	288	6
TAP	113	0	5
TAP	113	96	5
TAP	113	192	4
TAP	113	288	4
TAP	114	0	3
TAP	114	96	3
TAP	114	192	2
TAP	114	288	2
TAP	115	0	1
TAP	115	96	1
TAP	115	192	0
BRK	115	288	0
BRK	115	288	7

T_REC_TAP	298
T_REC_BRK	9
T_REC_XTP	0
T_REC_HLD	21
T_REC_XHO	0
T_REC_STR	5
T_REC_BST	0
T_REC_XST	0
T_REC_TTP	0
T_REC_THO	0
T_REC_SLD	5
T_REC_ALL	338
T_NUM_TAP	303
T_NUM_BRK	9
T_NUM_HLD	21
T_NUM_SLD	5
T_NUM_ALL	338
T_JUDGE_TAP	312
T_JUDGE_HLD	52
T_JUDGE_SLD	5
T_JUDGE_ALL	369
TTM_EACHPAIRS	62
TTM_SCR_TAP	151500
TTM_SCR_BRK	23400
TTM_SCR_HLD	21000
TTM_SCR_SLD	7500
TTM_SCR_ALL	203400
TTM_SCR_S	196450
TTM_SCR_SS	202500
TTM_RAT_ACV	10044

