VERSION	0.00.00	1.03.00
FES_MODE	0
BPM_DEF	242.000	242.000	242.000	242.000
MET_DEF	4	4
RESOLUTION	384
CLK_DEF	384
COMPATIBLE_CODE	MA2

BPM	0	0	242.000
MET	0	0	4	4

TAP	2	0	0
TAP	2	192	0
TAP	3	0	0
TAP	4	0	1
TAP	4	192	1
TAP	5	0	1
TAP	6	0	2
TAP	6	192	2
TAP	7	0	2
TAP	8	0	3
TAP	8	192	3
TAP	9	0	3
TAP	10	0	4
TAP	10	192	4
TAP	11	0	4
TAP	12	0	5
TAP	12	192	5
TAP	13	0	5
TAP	14	0	6
TAP	14	192	6
TAP	15	0	6
TAP	16	0	7
TAP	16	192	7
TAP	17	0	7
HLD	18	0	0	384
TAP	20	0	7
TAP	20	192	7
TAP	21	0	0
TAP	21	0	7
HLD	22	0	6	384
TAP	24	0	5
TAP	24	192	5
TAP	25	0	4
TAP	25	0	5
TAP	26	0	4
TAP	26	192	4
TAP	27	0	4
TAP	28	0	3
TAP	28	192	3
TAP	29	0	3
TAP	29	0	4
TAP	30	0	2
TAP	30	192	2
TAP	31	0	2
TAP	32	0	1
TAP	32	192	1
TAP	33	0	0
TAP	33	0	1
STR	34	0	0
SI_	34	0	0	96	672	3
STR	38	0	7
SI_	38	0	7	96	672	4
STR	42	0	0
SI_	42	0	0	96	672	5
STR	46	0	7
SI_	46	0	7	96	672	2
HLD	50	0	0	384
BRK	52	0	7
TAP	52	192	7
TAP	53	0	7
TAP	54	0	6
TAP	54	0	7
TAP	54	192	6
TAP	54	192	7
TAP	55	0	6
TAP	55	0	7
TAP	56	0	5
TAP	56	192	5
TAP	57	0	5
TAP	58	0	3
TAP	58	0	4
TAP	58	192	3
TAP	58	192	4
TAP	59	0	3
TAP	59	0	4
TAP	60	0	3
TAP	60	192	3
TAP	61	0	3
TAP	62	0	2
TAP	62	0	3
TAP	62	192	2
TAP	62	192	3
TAP	63	0	2
TAP	63	0	3
TAP	64	0	1
TAP	64	192	1
TAP	65	0	1
TAP	66	0	0
TAP	66	0	7
TAP	66	192	0
TAP	66	192	7
TAP	67	0	0
TAP	67	0	7
TAP	68	0	7
TAP	69	0	0
TAP	70	0	7
TAP	70	192	7
TAP	71	0	0
TAP	71	192	0
TAP	72	0	7
TAP	72	192	7
TAP	73	0	0
TAP	73	192	0
TAP	74	0	7
TAP	74	192	7
BRK	75	0	0
TAP	76	0	1
TAP	77	0	7
TAP	78	0	1
TAP	78	192	1
TAP	79	0	7
TAP	79	192	7
TAP	80	0	1
TAP	80	192	1
TAP	81	0	7
TAP	81	192	7
TAP	82	0	1
TAP	82	192	1
BRK	83	0	7
TAP	84	0	6
TAP	85	0	0
TAP	86	0	6
TAP	86	192	6
TAP	87	0	0
TAP	87	192	0
TAP	88	0	6
TAP	88	192	6
TAP	89	0	0
TAP	89	192	0
TAP	90	0	6
TAP	90	192	6
BRK	91	0	0
STR	92	0	1
SI_	92	0	1	96	672	5
STR	96	0	6
SI_	96	0	6	96	672	2
TAP	100	0	1
TAP	100	192	1
TAP	101	0	2
TAP	101	192	2
TAP	102	0	3
TAP	102	0	4
TAP	102	192	3
TAP	102	192	4
TAP	103	0	3
TAP	103	0	4
TAP	104	0	5
TAP	104	192	5
TAP	105	0	6
TAP	105	192	6
TAP	106	0	0
TAP	106	0	7
TAP	106	192	0
TAP	106	192	7
TAP	107	0	0
TAP	107	0	7
TAP	108	0	0
TAP	108	0	1
TAP	108	192	0
TAP	108	192	1
TAP	109	0	0
TAP	109	0	1
TAP	110	0	6
TAP	110	0	7
TAP	110	192	6
TAP	110	192	7
TAP	111	0	6
TAP	111	0	7
TAP	112	0	0
TAP	112	0	1
TAP	112	192	0
TAP	112	192	1
TAP	113	0	0
TAP	113	0	1
TAP	114	0	6
TAP	114	0	7
TAP	114	192	6
TAP	114	192	7
HLD	115	0	6	288
HLD	115	0	7	288

T_REC_TAP	159
T_REC_BRK	4
T_REC_XTP	0
T_REC_HLD	5
T_REC_XHO	0
T_REC_STR	6
T_REC_BST	0
T_REC_XST	0
T_REC_TTP	0
T_REC_THO	0
T_REC_SLD	6
T_REC_ALL	180
T_NUM_TAP	165
T_NUM_BRK	4
T_NUM_HLD	5
T_NUM_SLD	6
T_NUM_ALL	180
T_JUDGE_TAP	169
T_JUDGE_HLD	18
T_JUDGE_SLD	6
T_JUDGE_ALL	193
TTM_EACHPAIRS	34
TTM_SCR_TAP	82500
TTM_SCR_BRK	10400
TTM_SCR_HLD	5000
TTM_SCR_SLD	9000
TTM_SCR_ALL	106900
TTM_SCR_S	103350
TTM_SCR_SS	106500
TTM_RAT_ACV	10037

