VERSION	0.00.00	1.03.00
FES_MODE	0
BPM_DEF	125.000	125.000	125.000	125.000
MET_DEF	4	4
RESOLUTION	384
CLK_DEF	384
COMPATIBLE_CODE	MA2

BPM	0	0	125.000
MET	0	0	4	4

TAP	1	0	0
TAP	1	96	1
TAP	1	192	2
BRK	1	288	1
BRK	1	288	6
STR	2	0	0
SCR	2	0	0	96	96	3
STR	2	192	6
SCL	2	192	6	96	96	3
STR	3	0	1
SCR	3	0	1	96	96	4
STR	3	192	7
SCL	3	192	7	96	96	4
STR	4	0	1
SUL	4	0	1	96	96	4
TAP	4	240	5
TAP	4	288	6
STR	4	336	7
SF_	4	336	7	96	336	3
TAP	6	192	3
TAP	6	192	4
BRK	6	288	1
BRK	6	288	6
TAP	7	0	2
TAP	7	48	2
TAP	7	96	3
TAP	7	144	3
STR	7	192	4
SCR	7	192	4	96	96	7
STR	8	0	0
SCR	8	0	0	96	96	3
TAP	8	96	5
TAP	8	192	4
TAP	8	288	2
TAP	8	288	5
TAP	9	0	1
TAP	9	48	1
TAP	9	96	0
TAP	9	144	0
STR	9	192	7
SCL	9	192	7	96	96	4
STR	10	0	3
SXR	10	0	3	96	192	0
TAP	10	96	5
TAP	10	144	6
TAP	10	192	7
TAP	10	288	6
TAP	11	0	5
TAP	11	48	5
TAP	11	96	4
TAP	11	144	4
STR	11	192	3
SCL	11	192	3	96	96	0
STR	12	0	7
SCL	12	0	7	96	96	4
TAP	12	96	2
TAP	12	192	3
TAP	12	288	2
TAP	12	288	5
STR	13	0	1
SI_	13	0	1	96	48	5
TAP	13	96	7
STR	13	192	6
SI_	13	192	6	96	48	2
TAP	13	288	0
TAP	14	0	1
STR	14	96	2
SI_	14	96	2	96	48	7
STR	14	96	3
SI_	14	96	3	96	48	6
TAP	14	192	2
TAP	14	192	3
BRK	14	288	0
BRK	14	288	5
TAP	15	0	6
TAP	15	48	5
HLD	15	96	5	48
HLD	15	144	4	48
STR	15	192	3
SCR	15	192	3	96	48	6
HLD	15	264	2	72
TAP	16	0	1
TAP	16	48	2
HLD	16	96	2	48
HLD	16	144	3	48
STR	16	192	4
SCL	16	192	4	96	48	1
HLD	16	264	5	72
HLD	17	0	6	192
TAP	17	48	5
TAP	17	96	4
TAP	17	144	3
HLD	17	192	1	192
TAP	17	240	2
TAP	17	288	3
TAP	17	336	4
STR	18	0	6
SCR	18	0	6	96	96	1
STR	18	96	1
SCR	18	96	1	96	96	4
STR	18	192	4
SCR	18	192	4	96	96	7
BRK	18	288	7
TAP	19	0	3
TAP	19	48	2
HLD	19	96	2	48
HLD	19	144	1	48
STR	19	192	0
SCR	19	192	0	96	48	3
TAP	19	264	6
TAP	19	336	5
TAP	20	0	4
TAP	20	48	5
HLD	20	96	5	48
HLD	20	144	6	48
STR	20	192	7
SCL	20	192	7	96	48	4
TAP	20	264	1
TAP	20	336	2
HLD	21	0	3	192
TAP	21	96	2
HLD	21	192	4	192
TAP	21	288	5
HLD	22	0	2	96
HLD	22	96	3	96
TAP	22	192	4
TAP	22	240	4
STR	22	288	5
SCR	22	288	5	96	288	2
SUR	22	288	5	96	288	2
TAP	22	336	5
TAP	24	0	3
TAP	24	0	4
TAP	24	96	2
BRK	24	96	5
BRK	24	192	1
TAP	24	192	6
TAP	24	288	0
BRK	24	288	7
TAP	25	0	2
STR	25	0	6
SI_	25	0	6	96	48	3
TAP	25	48	1
TAP	25	96	2
TAP	25	96	6
TAP	25	192	2
STR	25	192	6
SI_	25	192	6	96	48	3
TAP	25	240	1
TAP	25	288	2
TAP	25	288	6
TAP	26	0	1
STR	26	0	6
SI_	26	0	6	96	48	2
TAP	26	48	0
TAP	26	96	1
TAP	26	96	6
TAP	26	192	1
STR	26	192	6
SI_	26	192	6	96	48	2
TAP	26	240	0
TAP	26	288	1
TAP	26	288	6
TAP	27	0	0
TAP	27	48	1
TAP	27	96	2
STR	27	144	3
SI_	27	144	3	96	48	7
TAP	27	240	3
STR	27	240	6
SCL	27	240	6	96	96	2
TAP	27	336	0
TAP	27	336	6
TAP	28	144	1
TAP	28	192	1
TAP	28	240	2
STR	28	240	4
SXR	28	240	4	96	192	0
TAP	28	288	3
TAP	28	288	5
TAP	28	336	4
HLD	28	336	6	192
STR	29	240	3
SXL	29	240	3	96	240	7
TAP	29	240	5
TAP	29	288	2
TAP	29	288	4
HLD	29	336	1	240
TAP	29	336	3
TAP	30	288	3
TAP	30	288	4
STR	31	0	6
SI_	31	0	6	96	48	3
TAP	31	48	0
TAP	31	96	1
TAP	31	96	6
TAP	31	144	2
STR	31	192	1
SI_	31	192	1	96	48	4
TAP	31	240	7
TAP	31	288	1
TAP	31	288	6
TAP	31	336	5
TAP	32	48	2
TAP	32	48	5
STR	32	96	0
SI_	32	96	0	96	48	4
STR	32	96	7
SI_	32	96	7	96	48	3
TAP	32	192	0
TAP	32	192	7
BRK	32	288	1
BRK	32	288	6
STR	33	0	1
SI_	33	0	1	96	48	4
TAP	33	0	5
TAP	33	48	6
TAP	33	96	1
TAP	33	96	5
STR	33	192	1
SI_	33	192	1	96	48	4
TAP	33	192	5
TAP	33	240	6
TAP	33	288	1
TAP	33	288	5
STR	34	0	1
SI_	34	0	1	96	48	5
TAP	34	0	6
TAP	34	48	7
TAP	34	96	1
TAP	34	96	6
STR	34	192	1
SI_	34	192	1	96	48	5
TAP	34	192	6
TAP	34	240	7
TAP	34	288	1
TAP	34	288	6
TAP	35	0	7
TAP	35	48	6
TAP	35	96	5
STR	35	144	4
SI_	35	144	4	96	48	0
TAP	35	192	2
STR	35	240	1
SCR	35	240	1	96	96	5
TAP	35	240	4
TAP	35	336	1
TAP	35	336	7
TAP	36	144	6
TAP	36	192	6
STR	36	240	3
SXL	36	240	3	96	192	7
TAP	36	240	5
TAP	36	288	2
TAP	36	288	4
HLD	36	336	1	192
TAP	36	336	3
TAP	37	240	2
STR	37	240	4
SXR	37	240	4	96	240	1
TAP	37	288	3
TAP	37	288	5
TAP	37	336	4
HLD	37	336	6	240
TAP	38	288	3
TAP	38	288	4
STR	39	0	1
SI_	39	0	1	96	48	4
TAP	39	48	7
TAP	39	96	1
TAP	39	96	6
TAP	39	144	5
STR	39	192	6
SI_	39	192	6	96	48	3
TAP	39	240	0
TAP	39	288	1
TAP	39	288	6
TAP	39	336	2
TAP	40	48	3
TAP	40	48	4
BRK	40	96	1
BRK	40	96	6
TAP	40	192	0
TAP	40	192	7
TAP	40	240	1
STR	40	240	6
SCR	40	240	6	96	288	5
TAP	40	288	2
TAP	40	288	5
TAP	40	336	1
TAP	40	336	6
HLD	42	0	6	192
TAP	42	48	5
TAP	42	96	4
TAP	42	144	3
HLD	42	192	1	192
TAP	42	264	2
TAP	43	0	5
STR	43	48	4
SI_	43	48	4	96	48	0
TAP	43	96	3
TAP	43	144	2
STR	43	240	3
SI_	43	240	3	96	48	7
TAP	43	288	4
TAP	43	336	5
STR	44	48	6
SI_	44	48	6	96	48	3
TAP	44	96	2
STR	44	144	1
SI_	44	144	1	96	48	4
TAP	44	240	5
TAP	44	288	6
HLD	45	0	3	96
HLD	45	0	4	96
HLD	45	144	2	96
HLD	45	144	5	96
HLD	45	288	1	96
HLD	45	288	6	96
STR	46	48	0
SXL	46	48	0	96	432	3
STR	46	48	7
SXR	46	48	7	96	432	4
TAP	48	0	5
TAP	48	96	5
TAP	48	192	4
TAP	48	288	4
TAP	49	0	3
TAP	49	96	3
TAP	49	192	2
TAP	49	288	2
HLD	50	0	2	96
HLD	50	96	3	96
HLD	50	192	4	96
TAP	50	288	5
HLD	50	336	5	96
TAP	51	48	4
HLD	51	96	4	96
TAP	51	192	3
TAP	51	288	2
TAP	51	288	5
TAP	52	0	5
TAP	52	96	4
TAP	52	192	3
TAP	52	288	2
HLD	52	336	2	192
TAP	53	48	4
TAP	53	96	5
TAP	53	144	6
TAP	53	288	0
TAP	53	288	7
HLD	53	336	1	240
HLD	53	336	6	240
TAP	54	336	0
TAP	54	336	7
TAP	55	0	0
TAP	55	0	7
TAP	55	96	1
TAP	55	96	6
TAP	55	192	3
TAP	55	192	4
TAP	55	288	2
STR	55	288	5
SCR	55	288	5	96	96	0
STR	56	0	0
SCR	56	0	0	96	96	3
STR	56	96	3
SCR	56	96	3	96	96	6
STR	56	192	6
SCR	56	192	6	96	96	1
STR	56	288	1
SCR	56	288	1	96	96	4
STR	57	0	4
SCR	57	0	4	96	96	7
TAP	57	96	7
TAP	57	192	2
BRK	57	288	1
BRK	57	288	6
TAP	58	0	2
STR	58	0	3
SI_	58	0	3	96	48	6
TAP	58	48	1
TAP	58	96	2
TAP	58	96	3
TAP	58	192	2
STR	58	192	3
SI_	58	192	3	96	48	6
TAP	58	240	1
TAP	58	288	2
TAP	58	288	3
TAP	59	0	2
STR	59	0	3
SI_	59	0	3	96	48	7
TAP	59	48	1
TAP	59	96	2
TAP	59	96	3
TAP	59	192	2
STR	59	192	3
SI_	59	192	3	96	48	7
TAP	59	240	1
TAP	59	288	2
TAP	59	288	3
TAP	60	0	3
TAP	60	0	6
TAP	60	96	2
TAP	60	96	5
TAP	60	144	2
STR	60	144	5
SCL	60	144	5	96	96	2
STR	60	240	2
SCL	60	240	2	96	96	7
TAP	60	240	5
STR	60	336	7
SCL	60	336	7	96	96	4
TAP	61	144	1
TAP	61	192	1
TAP	61	192	3
TAP	61	240	2
STR	61	240	4
SXR	61	240	4	96	192	7
TAP	61	288	3
TAP	61	288	5
TAP	61	336	4
HLD	61	336	6	192
STR	62	240	3
SXL	62	240	3	96	240	0
TAP	62	240	5
TAP	62	288	2
TAP	62	288	4
HLD	62	336	1	240
TAP	62	336	3
TAP	63	288	4
TAP	63	288	5
STR	64	0	1
SCR	64	0	1	96	48	4
TAP	64	48	0
TAP	64	96	7
TAP	64	144	6
STR	64	192	5
SCR	64	192	5	96	48	0
TAP	64	240	3
TAP	64	288	2
TAP	64	336	1
TAP	65	48	0
TAP	65	48	1
STR	65	96	0
SI_	65	96	0	96	48	5
STR	65	96	1
SI_	65	96	1	96	48	4
TAP	65	192	0
TAP	65	192	1
BRK	65	288	3
BRK	65	288	6
STR	66	0	4
SI_	66	0	4	96	48	1
TAP	66	0	5
TAP	66	48	6
TAP	66	96	4
TAP	66	96	5
STR	66	192	4
SI_	66	192	4	96	48	1
TAP	66	192	5
TAP	66	240	6
TAP	66	288	4
TAP	66	288	5
STR	67	0	4
SI_	67	0	4	96	48	0
TAP	67	0	5
TAP	67	48	6
TAP	67	96	4
TAP	67	96	5
STR	67	192	4
SI_	67	192	4	96	48	0
TAP	67	192	5
TAP	67	240	6
TAP	67	288	4
TAP	67	288	5
HLD	68	0	6	48
HLD	68	48	5	48
HLD	68	96	4	48
HLD	68	144	3	48
HLD	68	192	2	48
STR	68	240	1
SCL	68	240	1	96	96	6
STR	68	336	6
SCL	68	336	6	96	96	2
TAP	69	144	6
TAP	69	192	4
TAP	69	192	6
STR	69	240	3
SXL	69	240	3	96	192	0
TAP	69	240	5
TAP	69	288	2
TAP	69	288	4
HLD	69	336	1	192
TAP	69	336	3
TAP	70	240	2
STR	70	240	4
SXL	70	240	4	96	240	1
TAP	70	288	3
TAP	70	288	5
TAP	70	336	4
HLD	70	336	6	240
TAP	71	288	2
TAP	71	288	3
STR	72	0	6
SCL	72	0	6	96	48	3
TAP	72	48	7
TAP	72	96	0
TAP	72	144	1
STR	72	192	2
SCL	72	192	2	96	48	7
TAP	72	240	4
TAP	72	288	5
TAP	72	336	6
TAP	73	48	6
TAP	73	48	7
STR	73	96	6
SI_	73	96	6	96	48	3
STR	73	96	7
SI_	73	96	7	96	48	2
TAP	73	192	6
TAP	73	192	7
BRK	73	288	1
BRK	73	288	4
HLD	74	0	2	360
TAP	74	0	3
TAP	74	168	4
TAP	74	240	5
TAP	74	312	6
STR	74	360	6
SSR	74	360	6	96	264	2

T_REC_TAP	295
T_REC_BRK	20
T_REC_XTP	0
T_REC_HLD	46
T_REC_XHO	0
T_REC_STR	85
T_REC_BST	0
T_REC_XST	0
T_REC_TTP	0
T_REC_THO	0
T_REC_SLD	86
T_REC_ALL	532
T_NUM_TAP	380
T_NUM_BRK	20
T_NUM_HLD	46
T_NUM_SLD	86
T_NUM_ALL	532
T_JUDGE_TAP	400
T_JUDGE_HLD	125
T_JUDGE_SLD	86
T_JUDGE_ALL	611
TTM_EACHPAIRS	118
TTM_SCR_TAP	190000
TTM_SCR_BRK	52000
TTM_SCR_HLD	46000
TTM_SCR_SLD	129000
TTM_SCR_ALL	417000
TTM_SCR_S	402550
TTM_SCR_SS	415000
TTM_RAT_ACV	10048

