VERSION	0.00.00	1.03.00
FES_MODE	0
BPM_DEF	125.000	125.000	125.000	125.000
MET_DEF	4	4
RESOLUTION	384
CLK_DEF	384
COMPATIBLE_CODE	MA2

BPM	0	0	125.000
MET	0	0	4	4

BST	1	288	0
SI_	1	288	0	96	192	4
STR	2	288	5
SCR	2	288	5	96	288	2
STR	4	288	2
SCL	4	288	2	96	288	5
BRK	6	288	7
TAP	7	0	3
TAP	7	96	1
TAP	7	192	4
TAP	7	288	6
TAP	8	0	0
TAP	8	96	2
TAP	8	192	4
TAP	8	288	3
TAP	8	288	5
TAP	9	0	4
TAP	9	96	6
TAP	9	192	3
TAP	9	288	1
TAP	10	0	7
STR	10	96	1
SUR	10	96	1	96	96	6
STR	10	96	5
SCL	10	96	5	96	96	2
TAP	11	0	4
TAP	11	96	6
TAP	11	192	3
TAP	11	288	1
TAP	12	0	7
TAP	12	96	5
TAP	12	192	3
TAP	12	192	4
HLD	12	288	2	96
TAP	13	0	3
HLD	13	96	5	96
TAP	13	192	4
TAP	13	288	0
TAP	13	288	7
TAP	14	0	2
TAP	14	0	5
STR	14	96	3
SCL	14	96	3	96	96	0
STR	14	96	4
SCR	14	96	4	96	96	7
TAP	15	0	3
HLD	15	0	5	192
TAP	15	96	4
HLD	15	192	2	192
TAP	15	288	3
HLD	16	0	6	192
TAP	16	96	5
HLD	16	192	1	192
TAP	16	288	2
STR	17	0	7
SCL	17	0	7	96	96	4
STR	17	192	0
SCR	17	192	0	96	96	3
TAP	18	0	7
TAP	18	96	5
TAP	18	192	0
TAP	18	288	2
HLD	19	0	2	192
TAP	19	0	4
TAP	19	96	3
HLD	19	192	5	192
TAP	19	288	4
HLD	20	0	1	192
TAP	20	96	2
HLD	20	192	6	192
TAP	20	288	5
STR	21	0	0
SCR	21	0	0	96	96	3
STR	21	192	7
SCL	21	192	7	96	96	4
BRK	22	0	0
HLD	22	192	3	48
HLD	22	192	4	48
TAP	22	288	3
STR	22	288	4
SCR	22	288	4	96	384	3
TAP	22	336	3
TAP	22	336	4
BRK	24	96	4
BRK	24	192	5
BRK	24	288	6
TAP	25	0	1
TAP	25	0	7
TAP	25	96	0
TAP	25	96	6
TAP	25	192	2
TAP	25	192	7
TAP	25	288	0
TAP	25	288	5
TAP	26	0	1
TAP	26	0	7
TAP	26	96	0
TAP	26	96	6
TAP	26	192	2
TAP	26	192	7
TAP	26	288	0
TAP	26	288	5
HLD	27	0	2	96
HLD	27	96	3	96
HLD	27	192	4	96
STR	27	288	5
SUR	27	288	5	96	96	2
TAP	28	192	1
TAP	28	192	6
TAP	28	288	0
TAP	28	288	7
TAP	28	336	0
STR	28	336	7
SCL	28	336	7	96	96	4
STR	29	144	2
SCL	29	144	2	96	96	7
STR	29	336	5
SCL	29	336	5	96	96	2
TAP	30	192	0
TAP	30	192	7
TAP	30	288	1
TAP	30	288	6
TAP	31	0	5
TAP	31	96	3
TAP	31	192	1
TAP	31	288	0
TAP	31	288	1
TAP	31	336	0
TAP	31	336	1
STR	32	48	6
SI_	32	48	6	96	96	3
STR	32	48	7
SI_	32	48	7	96	96	2
TAP	32	96	6
TAP	32	96	7
TAP	32	288	1
TAP	32	288	4
TAP	33	0	0
TAP	33	0	6
TAP	33	96	1
TAP	33	96	7
TAP	33	192	0
TAP	33	192	5
TAP	33	288	2
TAP	33	288	7
TAP	34	0	0
TAP	34	0	6
TAP	34	96	1
TAP	34	96	7
TAP	34	192	0
TAP	34	192	5
TAP	34	288	2
TAP	34	288	7
HLD	35	0	5	96
HLD	35	96	4	96
HLD	35	192	3	96
STR	35	288	2
SUL	35	288	2	96	96	5
TAP	36	192	1
TAP	36	192	6
TAP	36	288	0
TAP	36	288	7
STR	36	336	0
SCR	36	336	0	96	96	3
TAP	36	336	7
STR	37	144	5
SCR	37	144	5	96	96	0
STR	37	336	2
SCR	37	336	2	96	96	5
TAP	38	192	0
TAP	38	192	7
TAP	38	288	1
TAP	38	288	6
TAP	39	0	2
TAP	39	96	4
TAP	39	192	6
TAP	39	288	6
TAP	39	288	7
TAP	39	336	6
TAP	39	336	7
STR	40	48	0
SI_	40	48	0	96	96	5
STR	40	48	1
SI_	40	48	1	96	96	4
TAP	40	96	0
TAP	40	96	1
TAP	40	288	3
STR	40	288	6
SCL	40	288	6	96	288	7
TAP	42	0	5
TAP	42	96	4
TAP	42	96	6
TAP	42	192	2
TAP	42	288	1
TAP	42	288	3
HLD	43	0	5	96
HLD	43	96	7	96
HLD	43	192	0	96
TAP	43	288	2
HLD	44	0	2	96
HLD	44	96	0	96
HLD	44	192	7	96
TAP	44	288	5
TAP	45	0	1
TAP	45	0	6
TAP	45	144	4
TAP	45	144	7
TAP	45	288	2
TAP	45	288	5
TAP	46	48	0
STR	46	48	3
SCR	46	48	3	96	432	2
HLD	48	0	0	192
HLD	48	192	1	192
HLD	49	0	2	192
HLD	49	192	3	192
HLD	50	0	4	192
HLD	50	192	5	192
HLD	51	0	6	192
HLD	51	192	7	96
TAP	51	288	0
TAP	52	0	3
TAP	52	96	2
TAP	52	192	1
TAP	52	288	0
STR	52	336	0
SF_	52	336	0	96	144	4
TAP	53	288	1
TAP	53	288	6
HLD	53	336	1	720
HLD	53	336	6	336
TAP	55	0	0
TAP	55	96	2
TAP	55	192	4
STR	55	288	6
SCL	55	288	6	96	384	7
BRK	57	288	7
TAP	58	0	0
TAP	58	0	6
TAP	58	96	1
TAP	58	96	7
TAP	58	192	0
TAP	58	192	5
TAP	58	288	2
TAP	58	288	7
TAP	59	0	0
TAP	59	0	6
TAP	59	96	1
TAP	59	96	7
TAP	59	192	0
TAP	59	192	5
TAP	59	288	2
TAP	59	288	7
HLD	60	0	5	96
HLD	60	96	7	96
HLD	60	192	0	96
STR	60	288	2
SUL	60	288	2	96	96	5
TAP	61	192	0
TAP	61	192	7
TAP	61	288	3
TAP	61	288	4
TAP	61	336	3
STR	61	336	4
SCR	61	336	4	96	96	7
STR	62	144	1
SCR	62	144	1	96	96	4
STR	62	336	6
SCR	62	336	6	96	96	1
TAP	63	192	0
TAP	63	192	7
TAP	63	288	3
TAP	63	288	4
TAP	64	0	5
TAP	64	96	3
TAP	64	192	1
TAP	64	288	0
TAP	64	288	1
TAP	64	336	0
TAP	64	336	1
STR	65	48	6
SI_	65	48	6	96	96	3
STR	65	48	7
SI_	65	48	7	96	96	2
TAP	65	96	6
TAP	65	96	7
TAP	65	288	1
TAP	65	288	4
TAP	66	0	1
TAP	66	0	7
TAP	66	96	0
TAP	66	96	6
TAP	66	192	2
TAP	66	192	7
TAP	66	288	0
TAP	66	288	5
TAP	67	0	1
TAP	67	0	7
TAP	67	96	0
TAP	67	96	6
TAP	67	192	2
TAP	67	192	7
TAP	67	288	0
TAP	67	288	5
HLD	68	0	2	96
HLD	68	96	0	96
HLD	68	192	7	96
STR	68	288	5
SUR	68	288	5	96	96	2
TAP	69	192	0
TAP	69	192	7
TAP	69	288	3
TAP	69	288	4
STR	69	336	3
SCL	69	336	3	96	96	0
TAP	69	336	4
STR	70	144	6
SCL	70	144	6	96	96	3
STR	70	336	1
SCL	70	336	1	96	96	6
TAP	71	192	0
TAP	71	192	7
TAP	71	288	3
TAP	71	288	4
TAP	72	0	2
TAP	72	96	4
TAP	72	192	6
TAP	72	288	6
TAP	72	288	7
TAP	72	336	6
TAP	72	336	7
STR	73	48	0
SI_	73	48	0	96	96	5
STR	73	48	1
SI_	73	48	1	96	96	4
TAP	73	96	0
TAP	73	96	1
TAP	73	288	3
STR	73	288	6
SSR	73	288	6	96	432	2

T_REC_TAP	212
T_REC_BRK	6
T_REC_XTP	0
T_REC_HLD	40
T_REC_XHO	0
T_REC_STR	40
T_REC_BST	1
T_REC_XST	0
T_REC_TTP	0
T_REC_THO	0
T_REC_SLD	41
T_REC_ALL	340
T_NUM_TAP	252
T_NUM_BRK	7
T_NUM_HLD	40
T_NUM_SLD	41
T_NUM_ALL	340
T_JUDGE_TAP	259
T_JUDGE_HLD	126
T_JUDGE_SLD	41
T_JUDGE_ALL	426
TTM_EACHPAIRS	91
TTM_SCR_TAP	126000
TTM_SCR_BRK	18200
TTM_SCR_HLD	40000
TTM_SCR_SLD	61500
TTM_SCR_ALL	245700
TTM_SCR_S	237650
TTM_SCR_SS	245000
TTM_RAT_ACV	10028

