VERSION	0.00.00	1.03.00
FES_MODE	0
BPM_DEF	125.000	125.000	125.000	125.000
MET_DEF	4	4
RESOLUTION	384
CLK_DEF	384
COMPATIBLE_CODE	MA2

BPM	0	0	125.000
MET	0	0	4	4

TAP	1	288	0
HLD	2	0	0	192
HLD	3	0	7	192
HLD	4	0	6	192
STR	5	0	5
SXR	5	0	5	96	432	1
TAP	7	0	2
TAP	7	96	2
TAP	7	192	3
TAP	8	0	5
TAP	8	96	5
TAP	8	192	4
TAP	9	0	3
TAP	9	96	3
TAP	9	192	4
TAP	9	288	4
HLD	10	0	3	96
HLD	10	0	4	96
TAP	10	192	2
TAP	10	192	5
TAP	11	0	5
TAP	11	96	5
TAP	11	192	4
TAP	12	0	2
TAP	12	96	2
TAP	12	192	3
TAP	13	0	4
TAP	13	96	4
TAP	13	192	3
TAP	13	288	3
STR	14	0	3
SI_	14	0	3	96	144	0
STR	14	0	4
SI_	14	0	4	96	144	7
TAP	15	0	1
TAP	15	96	1
TAP	15	192	0
TAP	15	192	1
TAP	16	0	6
TAP	16	96	6
TAP	16	192	6
TAP	16	192	7
STR	17	0	4
SCL	17	0	4	96	144	1
TAP	17	0	5
TAP	18	0	2
STR	18	0	3
SCR	18	0	3	96	144	6
TAP	19	0	6
TAP	19	96	6
TAP	19	192	6
TAP	19	192	7
TAP	20	0	1
TAP	20	96	1
TAP	20	192	0
TAP	20	192	1
STR	21	0	2
SI_	21	0	2	96	144	7
TAP	21	0	3
TAP	22	0	4
STR	22	0	5
SI_	22	0	5	96	144	0
STR	23	0	0
SCR	23	0	0	96	192	3
STR	23	0	7
SCL	23	0	7	96	192	4
STR	24	0	3
SI_	24	0	3	96	144	0
STR	24	0	4
SI_	24	0	4	96	144	7
BRK	25	0	6
TAP	25	96	6
TAP	25	96	7
TAP	25	192	6
TAP	25	192	7
TAP	26	0	1
TAP	26	96	0
TAP	26	96	1
TAP	26	192	0
TAP	26	192	1
TAP	27	0	6
TAP	27	96	6
TAP	27	96	7
TAP	27	192	1
TAP	27	288	0
TAP	27	288	1
TAP	28	0	2
TAP	28	0	7
TAP	28	192	7
TAP	28	288	6
TAP	29	0	4
TAP	29	0	5
TAP	29	96	5
TAP	29	192	2
TAP	29	192	3
TAP	29	288	2
TAP	30	0	3
TAP	30	0	4
TAP	30	96	4
TAP	30	192	2
TAP	30	288	1
TAP	31	0	0
TAP	31	96	0
TAP	31	192	7
TAP	31	288	7
STR	32	0	6
SI_	32	0	6	96	144	2
TAP	32	0	7
TAP	33	0	1
TAP	33	96	0
TAP	33	96	1
TAP	33	192	0
TAP	33	192	1
TAP	34	0	6
TAP	34	96	6
TAP	34	96	7
TAP	34	192	6
TAP	34	192	7
TAP	35	0	1
TAP	35	96	0
TAP	35	96	1
TAP	35	192	6
TAP	35	288	6
TAP	35	288	7
TAP	36	0	0
TAP	36	0	5
TAP	36	192	0
TAP	36	288	1
TAP	37	0	2
TAP	37	0	3
TAP	37	96	2
TAP	37	192	4
TAP	37	192	5
TAP	37	288	5
TAP	38	0	3
TAP	38	0	4
TAP	38	96	3
TAP	38	192	5
TAP	38	288	6
TAP	39	0	7
TAP	39	96	7
TAP	39	192	0
TAP	39	288	0
TAP	40	0	0
STR	40	0	1
SI_	40	0	1	96	144	5
HLD	41	0	6	96
TAP	41	96	7
TAP	41	192	6
TAP	41	192	7
HLD	42	0	1	96
TAP	42	96	0
TAP	42	192	0
TAP	42	192	1
HLD	43	0	6	96
TAP	43	96	7
HLD	43	192	1	96
TAP	43	288	0
HLD	44	0	7	96
TAP	44	96	0
TAP	44	192	1
TAP	44	192	6
TAP	45	0	2
TAP	45	96	2
TAP	45	192	4
TAP	45	288	4
TAP	46	0	3
STR	46	96	3
SXR	46	96	3	96	432	7
HLD	48	0	6	192
HLD	48	192	5	192
HLD	49	0	4	192
TAP	49	192	3
HLD	50	0	4	192
HLD	50	192	3	192
HLD	51	0	2	192
TAP	51	192	1
HLD	52	0	1	192
HLD	52	192	2	192
HLD	53	0	3	192
TAP	53	192	4
TAP	54	0	4
TAP	54	96	4
TAP	54	192	5
TAP	54	288	5
TAP	55	0	6
TAP	55	96	6
TAP	55	192	7
STR	55	288	0
SXL	55	288	0	96	384	3
STR	55	288	7
SXR	55	288	7	96	384	4
BRK	58	0	6
BRK	58	0	7
TAP	58	96	6
TAP	58	96	7
TAP	58	192	0
TAP	58	192	5
TAP	59	0	0
TAP	59	0	1
TAP	59	96	0
TAP	59	96	1
TAP	59	192	2
TAP	59	192	7
TAP	60	0	6
TAP	60	0	7
TAP	60	96	6
TAP	60	96	7
TAP	60	192	0
TAP	60	192	1
TAP	60	288	0
TAP	60	288	1
TAP	61	0	2
TAP	61	0	7
TAP	61	192	7
TAP	61	288	6
TAP	62	0	4
TAP	62	0	5
TAP	62	96	4
TAP	62	96	5
TAP	62	192	2
TAP	62	192	3
TAP	62	288	2
TAP	62	288	3
TAP	63	0	3
TAP	63	0	4
TAP	63	96	3
TAP	63	96	4
TAP	63	192	2
TAP	63	288	1
TAP	64	0	0
TAP	64	96	0
TAP	64	192	7
TAP	64	288	7
STR	65	0	6
SI_	65	0	6	96	144	3
STR	65	0	7
SI_	65	0	7	96	144	2
TAP	66	0	1
TAP	66	96	0
TAP	66	96	1
TAP	66	192	0
TAP	66	192	1
TAP	67	0	6
TAP	67	96	6
TAP	67	96	7
TAP	67	192	6
TAP	67	192	7
TAP	68	0	0
TAP	68	0	1
TAP	68	96	0
TAP	68	96	1
TAP	68	192	6
TAP	68	192	7
TAP	68	288	6
TAP	68	288	7
TAP	69	0	0
TAP	69	0	5
TAP	69	192	0
TAP	69	288	1
TAP	70	0	2
TAP	70	0	3
TAP	70	96	2
TAP	70	96	3
TAP	70	192	4
TAP	70	192	5
TAP	70	288	4
TAP	70	288	5
TAP	71	0	3
TAP	71	0	4
TAP	71	96	3
TAP	71	96	4
TAP	71	192	5
TAP	71	288	6
TAP	72	0	7
TAP	72	96	7
TAP	72	192	0
TAP	72	288	0
STR	73	0	0
SI_	73	0	0	96	144	5
STR	73	0	1
SI_	73	0	1	96	144	4
STR	74	0	6
SSR	74	0	6	96	384	2

T_REC_TAP	220
T_REC_BRK	3
T_REC_XTP	0
T_REC_HLD	19
T_REC_XHO	0
T_REC_STR	21
T_REC_BST	0
T_REC_XST	0
T_REC_TTP	0
T_REC_THO	0
T_REC_SLD	21
T_REC_ALL	284
T_NUM_TAP	241
T_NUM_BRK	3
T_NUM_HLD	19
T_NUM_SLD	21
T_NUM_ALL	284
T_JUDGE_TAP	244
T_JUDGE_HLD	62
T_JUDGE_SLD	21
T_JUDGE_ALL	327
TTM_EACHPAIRS	73
TTM_SCR_TAP	120500
TTM_SCR_BRK	7800
TTM_SCR_HLD	19000
TTM_SCR_SLD	31500
TTM_SCR_ALL	178800
TTM_SCR_S	173150
TTM_SCR_SS	178500
TTM_RAT_ACV	10016

