VERSION	0.00.00	1.03.00
FES_MODE	0
BPM_DEF	125.000	125.000	125.000	125.000
MET_DEF	4	4
RESOLUTION	384
CLK_DEF	384
COMPATIBLE_CODE	MA2

BPM	0	0	125.000
MET	0	0	4	4

TAP	2	0	0
TAP	2	192	0
TAP	3	0	1
TAP	3	192	1
TAP	4	0	2
TAP	4	192	2
STR	5	0	3
SI_	5	0	3	96	288	7
TAP	7	0	6
TAP	7	192	6
TAP	8	0	5
TAP	8	192	5
TAP	9	0	4
TAP	9	192	4
TAP	10	0	3
TAP	10	192	3
TAP	10	192	4
TAP	11	0	2
TAP	11	192	2
TAP	12	0	1
TAP	12	192	1
TAP	13	0	0
TAP	13	192	0
TAP	14	0	7
TAP	14	192	0
TAP	14	192	7
STR	15	0	0
SI_	15	0	0	96	288	4
STR	17	0	7
SI_	17	0	7	96	288	3
STR	19	0	0
SI_	19	0	0	96	288	5
STR	21	0	7
SI_	21	0	7	96	288	2
HLD	23	0	0	384
HLD	23	0	7	384
TAP	25	0	1
TAP	25	96	1
TAP	25	192	1
TAP	26	0	2
TAP	26	96	2
TAP	26	192	2
TAP	27	0	3
TAP	27	96	3
TAP	27	192	3
TAP	28	0	4
TAP	28	96	3
TAP	28	192	4
TAP	29	0	5
TAP	29	96	5
TAP	29	192	5
TAP	30	0	6
TAP	30	96	6
TAP	30	192	6
TAP	31	0	7
TAP	31	96	7
TAP	31	192	7
TAP	32	0	0
TAP	32	96	7
TAP	32	192	0
BRK	33	0	6
TAP	33	96	6
TAP	33	192	6
TAP	34	0	5
TAP	34	96	5
TAP	34	192	5
TAP	35	0	4
TAP	35	96	4
TAP	35	192	4
TAP	36	0	3
TAP	36	96	4
TAP	36	192	3
TAP	36	192	4
TAP	37	0	2
TAP	37	96	2
TAP	37	192	2
TAP	38	0	1
TAP	38	96	1
TAP	38	192	1
TAP	39	0	0
TAP	39	96	0
TAP	39	192	0
TAP	40	0	7
TAP	40	96	0
TAP	40	192	0
TAP	40	192	7
TAP	41	0	1
TAP	41	192	1
TAP	42	0	2
TAP	42	192	2
TAP	43	0	3
TAP	43	192	3
TAP	44	0	4
TAP	44	192	4
HLD	45	0	3	384
STR	48	0	6
SI_	48	0	6	96	288	2
STR	50	0	1
SI_	50	0	1	96	288	5
STR	52	0	4
SI_	52	0	4	96	288	0
STR	54	0	3
SI_	54	0	3	96	288	7
HLD	56	0	0	384
HLD	56	0	7	384
TAP	58	0	7
TAP	58	96	7
TAP	58	192	7
TAP	59	0	6
TAP	59	96	6
TAP	59	192	6
TAP	60	0	5
TAP	60	96	5
TAP	60	192	5
TAP	61	0	3
TAP	61	0	4
TAP	61	96	3
TAP	61	96	4
TAP	61	192	3
TAP	61	192	4
TAP	62	0	2
TAP	62	96	2
TAP	62	192	2
TAP	63	0	1
TAP	63	96	1
TAP	63	192	1
TAP	64	0	0
TAP	64	96	0
TAP	64	192	0
TAP	65	0	6
TAP	65	0	7
TAP	65	96	6
TAP	65	96	7
TAP	65	192	6
TAP	65	192	7
BRK	66	0	0
TAP	66	96	0
TAP	66	192	0
TAP	67	0	1
TAP	67	96	1
TAP	67	192	1
TAP	68	0	2
TAP	68	96	2
TAP	68	192	2
TAP	69	0	3
TAP	69	0	4
TAP	69	96	3
TAP	69	96	4
TAP	69	192	3
TAP	69	192	4
TAP	70	0	5
TAP	70	96	5
TAP	70	192	5
TAP	71	0	6
TAP	71	96	6
TAP	71	192	6
TAP	72	0	7
TAP	72	96	7
TAP	72	192	7
TAP	73	0	0
TAP	73	0	1
TAP	73	96	0
TAP	73	96	1
TAP	73	192	0
TAP	73	192	1
STR	74	0	0
SI_	74	0	0	96	288	3
STR	74	0	7
SI_	74	0	7	96	288	4

T_REC_TAP	140
T_REC_BRK	2
T_REC_XTP	0
T_REC_HLD	5
T_REC_XHO	0
T_REC_STR	11
T_REC_BST	0
T_REC_XST	0
T_REC_TTP	0
T_REC_THO	0
T_REC_SLD	11
T_REC_ALL	169
T_NUM_TAP	151
T_NUM_BRK	2
T_NUM_HLD	5
T_NUM_SLD	11
T_NUM_ALL	169
T_JUDGE_TAP	153
T_JUDGE_HLD	40
T_JUDGE_SLD	11
T_JUDGE_ALL	204
TTM_EACHPAIRS	19
TTM_SCR_TAP	75500
TTM_SCR_BRK	5200
TTM_SCR_HLD	5000
TTM_SCR_SLD	16500
TTM_SCR_ALL	102200
TTM_SCR_S	98950
TTM_SCR_SS	102000
TTM_RAT_ACV	10019

