VERSION	0.00.00	1.03.00
FES_MODE	0
BPM_DEF	200.000	200.000	200.000	200.000
MET_DEF	4	4
RESOLUTION	384
CLK_DEF	384
COMPATIBLE_CODE	MA2

BPM	0	0	200.000
MET	0	0	4	4

STR	1	0	2
SCL	1	0	2	96	192	7
STR	2	0	6
SCL	2	0	6	96	192	3
STR	3	0	2
SXL	3	0	2	96	480	6
TAP	5	0	4
TAP	5	144	3
TAP	5	288	3
TAP	6	0	5
TAP	6	192	2
TAP	7	0	3
TAP	7	0	4
STR	8	192	1
SXL	8	192	1	96	1056	5
STR	8	192	5
SXL	8	192	5	96	1056	1
BRK	11	288	3
BRK	11	288	7
TAP	12	0	4
TAP	12	48	5
TAP	12	96	6
HLD	12	144	7	96
TAP	12	240	3
TAP	12	288	2
TAP	12	336	1
STR	13	0	0
SI_	13	0	0	96	48	4
BST	13	96	7
SI_	13	96	7	96	48	3
BST	13	192	1
SI_	13	192	1	96	48	5
BRK	13	288	6
TAP	14	0	7
TAP	14	48	6
TAP	14	96	5
HLD	14	144	4	96
TAP	14	240	7
TAP	14	288	0
TAP	14	336	1
BRK	15	0	2
BRK	15	0	3
BST	15	96	1
SCR	15	96	1	96	96	5
BRK	15	96	6
BRK	15	144	1
BRK	15	144	6
BRK	15	288	7
TAP	16	0	0
TAP	16	48	1
TAP	16	96	2
HLD	16	144	3	96
HLD	16	144	4	96
HLD	16	288	0	96
HLD	16	288	1	96
HLD	17	48	6	96
HLD	17	48	7	96
BST	17	192	4
SI_	17	192	4	96	48	1
BST	17	192	5
SI_	17	192	5	96	48	0
BRK	17	288	4
BRK	17	288	5
TAP	18	0	7
TAP	18	48	0
TAP	18	96	6
HLD	18	144	1	96
TAP	18	240	5
TAP	18	288	2
TAP	18	336	4
BST	19	0	3
SI_	19	0	3	96	48	0
BST	19	96	7
SCL	19	96	7	96	96	2
BRK	19	144	7
BRK	19	288	1
TAP	20	0	5
TAP	20	48	2
TAP	20	72	3
TAP	20	96	2
TAP	20	120	3
TAP	20	144	2
TAP	20	192	5
TAP	20	216	4
TAP	20	240	5
TAP	20	264	4
TAP	20	288	5
HLD	21	0	0	48
HLD	21	48	2	48
HLD	21	96	4	48
HLD	21	144	6	48
HLD	21	192	7	48
HLD	21	240	5	48
HLD	21	288	3	48
HLD	21	336	1	48
TAP	22	0	0
TAP	22	96	2
TAP	22	96	5
STR	22	192	3
SI_	22	192	3	96	48	0
STR	22	192	4
SI_	22	192	4	96	48	7
BRK	22	288	3
BRK	22	288	4
HLD	23	0	6	240
TAP	23	96	3
TAP	23	144	3
TAP	23	240	1
HLD	23	336	7	144
TAP	24	48	3
STR	24	96	3
SCR	24	96	3	96	96	6
STR	24	192	6
SCR	24	192	6	96	96	1
STR	24	288	1
SCR	24	288	1	96	96	4
STR	25	0	4
SXR	25	0	4	96	288	0
TAP	25	96	5
TAP	25	192	5
TAP	25	288	6
TAP	26	0	7
TAP	26	96	3
TAP	26	96	4
STR	26	192	0
SI_	26	192	0	96	48	3
STR	26	192	7
SI_	26	192	7	96	48	4
BRK	26	288	0
BRK	26	288	7
TAP	27	0	1
TAP	27	48	1
TAP	27	96	4
TAP	27	144	4
TAP	27	240	6
TAP	27	240	7
HLD	27	336	0	144
TAP	28	48	4
STR	28	96	4
SCL	28	96	4	96	96	1
STR	28	192	1
SCL	28	192	1	96	96	6
STR	28	288	6
SCL	28	288	6	96	96	3
STR	29	0	3
SXL	29	0	3	96	288	7
TAP	29	96	2
TAP	29	192	2
TAP	29	288	1
TAP	30	0	0
TAP	30	96	3
TAP	30	96	4
STR	30	192	1
SV_	30	192	1	96	48	4
STR	30	192	7
SV_	30	192	7	96	48	4
BRK	30	288	1
BRK	30	288	7
HLD	31	0	5	240
TAP	31	96	0
TAP	31	144	0
TAP	31	240	2
HLD	31	336	4	144
TAP	32	48	0
STR	32	96	0
SCL	32	96	0	96	96	5
STR	32	192	5
SCL	32	192	5	96	96	2
STR	32	288	2
SCL	32	288	2	96	96	7
STR	33	0	7
SXL	33	0	7	96	288	3
TAP	33	96	6
TAP	33	192	6
TAP	33	288	5
TAP	34	0	4
TAP	34	96	3
TAP	34	96	4
STR	34	192	1
SI_	34	192	1	96	48	5
STR	34	192	6
SI_	34	192	6	96	48	2
BRK	34	288	1
BRK	34	288	6
TAP	35	0	6
TAP	35	48	6
TAP	35	96	3
TAP	35	144	3
TAP	35	240	0
TAP	35	240	1
HLD	35	336	2	192
TAP	36	48	4
TAP	36	96	5
TAP	36	144	6
TAP	36	192	1
TAP	36	192	6
STR	36	288	0
SI_	36	288	0	96	48	4
STR	36	288	7
SI_	36	288	7	96	48	5
STR	37	0	0
SI_	37	0	0	96	48	2
STR	37	0	7
SI_	37	0	7	96	48	3
STR	37	96	0
SI_	37	96	0	96	48	4
STR	37	96	7
SI_	37	96	7	96	48	5
TAP	37	192	0
TAP	37	192	7
BRK	37	288	1
BRK	37	288	6
TAP	38	0	5
TAP	38	24	4
TAP	38	48	5
TAP	38	96	2
TAP	38	120	3
TAP	38	144	2
TAP	38	192	4
TAP	38	192	6
STR	38	288	2
SI_	38	288	2	96	48	7
TAP	38	312	3
TAP	38	336	2
TAP	39	96	5
TAP	39	120	4
TAP	39	144	6
TAP	39	240	0
TAP	39	264	7
TAP	39	288	1
TAP	40	0	2
TAP	40	24	3
TAP	40	48	2
TAP	40	96	5
TAP	40	120	4
TAP	40	144	5
TAP	40	192	1
TAP	40	192	3
STR	40	288	5
SI_	40	288	5	96	48	0
TAP	40	312	4
TAP	40	336	5
TAP	41	48	1
TAP	41	96	1
TAP	41	192	2
TAP	41	192	3
TAP	41	240	3
TAP	41	240	4
TAP	41	288	4
TAP	41	288	5
TAP	42	0	6
TAP	42	24	7
TAP	42	48	6
TAP	42	96	1
TAP	42	120	0
TAP	42	144	1
TAP	42	192	5
TAP	42	192	7
STR	42	288	1
SI_	42	288	1	96	48	4
TAP	42	312	0
TAP	42	336	1
TAP	43	96	6
TAP	43	120	7
TAP	43	144	5
TAP	43	240	3
TAP	43	264	4
TAP	43	288	2
TAP	44	0	0
STR	44	0	7
SXR	44	0	7	96	192	4
TAP	44	96	1
TAP	44	192	2
TAP	44	288	3
STR	45	0	0
SXL	45	0	0	96	192	3
TAP	45	0	7
TAP	45	96	6
TAP	45	192	5
STR	45	288	4
SI_	45	288	4	96	48	1
STR	46	0	3
SI_	46	0	3	96	48	6
STR	46	96	5
SI_	46	96	5	96	48	0
STR	46	192	2
SI_	46	192	2	96	48	7
STR	46	288	4
SCR	46	288	4	96	192	3
TAP	47	240	0
TAP	47	264	7
BRK	47	288	1
BRK	47	288	6
STR	48	0	1
SI_	48	0	1	96	48	4
TAP	48	48	0
TAP	48	96	7
STR	48	144	6
SI_	48	144	6	96	48	3
TAP	48	192	7
TAP	48	240	0
TAP	48	288	1
STR	49	0	5
SI_	49	0	5	96	48	0
TAP	49	48	4
TAP	49	96	3
STR	49	144	2
SI_	49	144	2	96	48	7
TAP	49	192	3
TAP	49	240	4
TAP	49	288	5
STR	50	0	6
SI_	50	0	6	96	48	3
TAP	50	48	7
TAP	50	96	0
STR	50	144	1
SI_	50	144	1	96	48	4
TAP	50	192	0
TAP	50	240	7
STR	50	288	6
SXL	50	288	6	96	192	3
TAP	51	0	1
TAP	51	0	6
TAP	51	288	0
TAP	51	288	5
STR	52	0	0
SI_	52	0	0	96	48	3
TAP	52	48	7
TAP	52	96	6
STR	52	144	5
SI_	52	144	5	96	48	2
TAP	52	192	6
TAP	52	240	7
TAP	52	288	0
TAP	53	0	2
TAP	53	0	6
STR	53	96	0
SCL	53	96	0	96	96	3
TAP	53	96	1
TAP	53	144	0
TAP	53	144	1
TAP	53	288	7
TAP	54	0	1
TAP	54	0	5
STR	54	96	6
SI_	54	96	6	96	48	3
STR	54	96	7
SI_	54	96	7	96	48	2
TAP	54	144	6
TAP	54	144	7
TAP	54	288	1
TAP	54	288	4
TAP	55	0	0
TAP	55	0	7
TAP	55	48	3
TAP	55	48	5
TAP	55	96	2
TAP	55	96	4
STR	55	144	1
SI_	55	144	1	96	48	4
STR	55	144	6
SI_	55	144	6	96	48	3
BRK	55	240	1
BRK	55	240	6
STR	56	0	6
SI_	56	0	6	96	48	3
TAP	56	48	7
TAP	56	96	0
STR	56	144	1
SI_	56	144	1	96	48	4
TAP	56	192	0
TAP	56	240	7
TAP	56	288	6
STR	57	0	2
SI_	57	0	2	96	48	7
TAP	57	48	3
TAP	57	96	4
STR	57	144	5
SI_	57	144	5	96	48	0
TAP	57	192	4
TAP	57	240	3
TAP	57	288	2
STR	58	0	1
SI_	58	0	1	96	48	4
TAP	58	48	0
TAP	58	96	7
STR	58	144	6
SI_	58	144	6	96	48	3
TAP	58	192	7
TAP	58	240	0
STR	58	288	1
SXR	58	288	1	96	192	4
TAP	59	0	1
TAP	59	0	6
TAP	59	288	2
TAP	59	288	7
STR	60	0	7
SI_	60	0	7	96	48	4
TAP	60	48	0
TAP	60	96	1
STR	60	144	2
SI_	60	144	2	96	48	5
TAP	60	192	1
TAP	60	240	0
TAP	60	288	7
STR	61	0	0
SI_	61	0	0	96	48	4
STR	61	48	7
SI_	61	48	7	96	48	3
TAP	61	96	0
TAP	61	144	7
TAP	61	240	2
TAP	61	240	5
TAP	61	288	2
TAP	61	288	5
TAP	62	0	6
TAP	62	0	7
TAP	62	96	4
TAP	62	96	5
TAP	62	144	3
TAP	62	144	6
TAP	62	240	2
TAP	62	240	3
TAP	62	288	1
TAP	62	288	4
HLD	63	0	6	72
HLD	63	72	5	72
TAP	63	144	4
HLD	63	192	1	72
HLD	63	264	2	72
TAP	63	336	3
STR	64	0	4
SI_	64	0	4	96	48	0
STR	64	96	2
SI_	64	96	2	96	48	7
TAP	64	192	6
TAP	64	240	6
TAP	64	336	3
TAP	64	336	4
TAP	65	48	0
TAP	65	48	7
STR	65	96	0
SUR	65	96	0	96	48	4
STR	65	96	7
SUL	65	96	7	96	48	3
BRK	65	192	0
BRK	65	192	7
TAP	66	0	4
HLD	66	0	5	672
TAP	66	96	4
TAP	66	192	3
TAP	66	288	3
TAP	67	0	2
TAP	67	96	2
TAP	67	192	1
TAP	67	288	1
HLD	68	0	2	672
TAP	68	0	3
TAP	68	96	3
TAP	68	192	4
TAP	68	288	4
TAP	69	0	5
TAP	69	96	5
TAP	69	192	6
TAP	69	288	6
TAP	70	0	3
HLD	70	0	7	672
TAP	70	96	3
TAP	70	192	4
TAP	70	288	4
TAP	71	0	5
TAP	71	96	5
TAP	71	192	6
TAP	71	288	6
HLD	72	0	0	672
TAP	72	0	4
TAP	72	96	4
TAP	72	192	3
TAP	72	288	3
TAP	73	0	2
TAP	73	96	2
TAP	73	192	1
TAP	73	288	1
TAP	74	0	2
TAP	74	0	3
TAP	74	96	1
TAP	74	96	7
TAP	74	192	4
TAP	74	240	5
TAP	74	288	0
TAP	74	288	6
TAP	75	0	4
TAP	75	0	5
TAP	75	96	0
TAP	75	96	6
TAP	75	192	3
TAP	75	240	2
TAP	75	288	1
TAP	75	288	7
TAP	76	0	0
TAP	76	48	1
TAP	76	48	7
TAP	76	96	2
TAP	76	96	6
TAP	76	192	7
TAP	76	240	0
TAP	76	240	6
TAP	76	288	1
TAP	76	288	5
TAP	77	0	2
TAP	77	24	3
TAP	77	48	2
TAP	77	72	3
TAP	77	96	0
TAP	77	192	5
TAP	77	216	4
TAP	77	240	5
TAP	77	264	4
TAP	77	288	7
TAP	78	0	0
TAP	78	0	5
TAP	78	96	2
TAP	78	96	3
TAP	78	144	2
TAP	78	144	3
TAP	78	192	1
TAP	78	192	4
TAP	78	240	1
TAP	78	240	4
TAP	78	288	0
TAP	78	288	5
TAP	78	336	0
TAP	78	336	5
TAP	79	0	6
TAP	79	0	7
TAP	79	96	4
TAP	79	96	5
TAP	79	144	4
TAP	79	144	5
TAP	79	192	3
TAP	79	192	6
TAP	79	240	3
TAP	79	240	6
TAP	79	288	2
TAP	79	288	7
TAP	79	336	2
TAP	79	336	7
TAP	80	0	3
TAP	80	24	4
TAP	80	48	3
TAP	80	72	4
TAP	80	96	2
TAP	80	120	5
TAP	80	144	2
TAP	80	168	5
TAP	80	192	1
TAP	80	216	6
TAP	80	240	1
TAP	80	264	6
TAP	80	288	0
TAP	81	0	3
TAP	81	24	7
TAP	81	48	3
TAP	81	72	7
TAP	81	96	2
TAP	81	120	6
TAP	81	144	2
TAP	81	168	6
TAP	81	192	1
TAP	81	216	5
TAP	81	240	1
TAP	81	264	5
TAP	81	288	0
TAP	81	312	4
TAP	81	336	0
TAP	81	360	4
STR	82	0	7
SCL	82	0	7	96	288	0
TAP	83	144	0
TAP	83	168	7
BRK	83	192	1
BRK	83	192	6
STR	84	0	6
SI_	84	0	6	96	48	2
TAP	84	48	0
TAP	84	96	0
STR	84	144	1
SI_	84	144	1	96	48	5
TAP	84	192	7
TAP	84	240	7
TAP	84	288	6
STR	85	0	0
SCR	85	0	0	96	48	3
TAP	85	48	6
TAP	85	96	6
STR	85	144	7
SCL	85	144	7	96	48	4
TAP	85	192	1
TAP	85	240	1
TAP	85	288	0
STR	86	0	5
SCR	86	0	5	96	48	0
TAP	86	48	3
TAP	86	96	3
STR	86	144	2
SCL	86	144	2	96	48	7
TAP	86	192	4
TAP	86	240	4
STR	86	288	5
SXR	86	288	5	96	192	0
TAP	87	0	2
TAP	87	0	5
TAP	87	288	2
TAP	87	288	7
STR	88	0	7
SI_	88	0	7	96	48	3
TAP	88	48	0
TAP	88	96	0
STR	88	144	1
SI_	88	144	1	96	48	5
TAP	88	192	0
TAP	88	240	0
TAP	88	288	7
TAP	89	0	1
TAP	89	0	5
TAP	89	96	6
STR	89	96	7
SCR	89	96	7	96	96	4
TAP	89	144	6
TAP	89	144	7
TAP	89	288	0
TAP	90	0	2
TAP	90	0	6
STR	90	96	0
SI_	90	96	0	96	48	5
STR	90	96	1
SI_	90	96	1	96	48	4
TAP	90	144	0
TAP	90	144	1
TAP	90	288	3
TAP	90	288	6
TAP	91	0	0
TAP	91	0	7
TAP	91	48	2
TAP	91	48	4
TAP	91	96	3
TAP	91	96	5
STR	91	144	1
SI_	91	144	1	96	48	4
STR	91	144	6
SI_	91	144	6	96	48	3
BRK	91	240	1
BRK	91	240	6
STR	92	0	1
SI_	92	0	1	96	48	5
TAP	92	48	7
TAP	92	96	7
STR	92	144	6
SI_	92	144	6	96	48	2
TAP	92	192	0
TAP	92	240	0
TAP	92	288	1
STR	93	0	7
SCL	93	0	7	96	48	4
TAP	93	48	1
TAP	93	96	1
STR	93	144	0
SCR	93	144	0	96	48	3
TAP	93	192	6
TAP	93	240	6
TAP	93	288	7
STR	94	0	2
SCL	94	0	2	96	48	7
TAP	94	48	4
TAP	94	96	4
STR	94	144	5
SCR	94	144	5	96	48	0
TAP	94	192	3
TAP	94	240	3
STR	94	288	2
SXL	94	288	2	96	192	7
TAP	95	0	2
TAP	95	0	5
TAP	95	288	0
TAP	95	288	5
STR	96	0	0
SI_	96	0	0	96	48	4
TAP	96	48	7
TAP	96	96	7
STR	96	144	6
SI_	96	144	6	96	48	2
TAP	96	192	7
TAP	96	240	7
TAP	96	288	0
STR	97	0	7
SI_	97	0	7	96	48	3
STR	97	48	0
SI_	97	48	0	96	48	4
TAP	97	96	7
TAP	97	144	0
TAP	97	240	2
TAP	97	240	5
TAP	97	288	2
TAP	97	288	5
TAP	98	0	0
TAP	98	0	1
TAP	98	96	6
TAP	98	96	7
TAP	98	144	1
TAP	98	144	4
TAP	98	240	0
TAP	98	240	1
TAP	98	288	3
TAP	98	288	6
HLD	99	0	1	72
HLD	99	72	2	72
TAP	99	144	3
HLD	99	192	6	72
HLD	99	264	5	72
TAP	99	336	4
STR	100	0	3
SI_	100	0	3	96	48	7
TAP	100	96	3
STR	100	96	5
SI_	100	96	5	96	48	0
TAP	100	192	1
TAP	100	192	5
TAP	100	240	1
TAP	100	336	6
TAP	100	336	7
TAP	101	48	0
TAP	101	48	1
STR	101	96	0
SCL	101	96	0	96	48	5
STR	101	96	1
SCR	101	96	1	96	48	4
BRK	101	192	0
BRK	101	192	1
STR	102	0	4
SI_	102	0	4	96	48	0
STR	102	96	2
SI_	102	96	2	96	48	7
TAP	102	96	4
TAP	102	192	2
TAP	102	192	6
TAP	102	240	6
TAP	102	336	0
TAP	102	336	1
TAP	103	48	6
TAP	103	48	7
STR	103	96	6
SCL	103	96	6	96	48	3
STR	103	96	7
SCR	103	96	7	96	48	2
BRK	103	192	6
BRK	103	192	7

T_REC_TAP	460
T_REC_BRK	37
T_REC_XTP	0
T_REC_HLD	35
T_REC_XHO	0
T_REC_STR	105
T_REC_BST	7
T_REC_XST	0
T_REC_TTP	0
T_REC_THO	0
T_REC_SLD	112
T_REC_ALL	756
T_NUM_TAP	565
T_NUM_BRK	44
T_NUM_HLD	35
T_NUM_SLD	112
T_NUM_ALL	756
T_JUDGE_TAP	609
T_JUDGE_HLD	121
T_JUDGE_SLD	112
T_JUDGE_ALL	842
TTM_EACHPAIRS	131
TTM_SCR_TAP	282500
TTM_SCR_BRK	114400
TTM_SCR_HLD	35000
TTM_SCR_SLD	168000
TTM_SCR_ALL	599900
TTM_SCR_S	577650
TTM_SCR_SS	595500
TTM_RAT_ACV	10073

