VERSION	0.00.00	1.03.00
FES_MODE	0
BPM_DEF	200.000	200.000	200.000	200.000
MET_DEF	4	4
RESOLUTION	384
CLK_DEF	384
COMPATIBLE_CODE	MA2

BPM	0	0	200.000
MET	0	0	4	4

HLD	1	0	5	384
HLD	2	0	4	384
HLD	3	0	3	384
TAP	4	0	2
TAP	4	192	1
TAP	4	192	4
HLD	5	0	2	384
HLD	6	0	3	384
HLD	7	0	4	384
TAP	8	0	5
STR	8	192	3
SCL	8	192	3	96	960	4
TAP	8	192	6
TAP	11	288	3
TAP	11	288	4
TAP	12	0	2
TAP	12	96	2
TAP	12	96	3
TAP	12	192	5
TAP	12	288	4
TAP	12	288	5
TAP	13	0	3
TAP	13	0	6
BRK	13	96	0
BRK	13	96	1
BRK	13	192	0
BRK	13	192	1
BRK	13	288	0
BRK	13	288	1
TAP	14	0	2
TAP	14	96	1
TAP	14	96	3
TAP	14	192	5
TAP	14	288	4
TAP	14	288	6
BRK	15	0	0
BRK	15	0	7
BRK	15	96	1
BRK	15	96	6
BRK	15	144	1
BRK	15	144	6
BRK	15	288	2
BRK	15	288	5
TAP	16	0	3
TAP	16	0	6
TAP	16	96	5
TAP	16	192	1
TAP	16	192	4
TAP	16	288	2
TAP	17	0	3
TAP	17	0	6
TAP	17	96	5
TAP	17	192	2
TAP	17	192	3
TAP	17	288	0
TAP	17	288	6
TAP	18	0	2
TAP	18	0	7
TAP	18	96	1
TAP	18	192	0
TAP	18	192	5
TAP	18	288	6
BRK	19	0	0
BRK	19	0	7
BRK	19	96	1
BRK	19	96	6
BRK	19	144	1
BRK	19	144	6
BRK	19	288	2
BRK	19	288	5
TAP	20	0	3
TAP	20	0	4
TAP	20	144	2
TAP	20	144	5
TAP	20	288	1
TAP	20	288	6
STR	21	0	0
SSL	21	0	0	96	288	4
TAP	21	0	7
STR	22	96	3
SI_	22	96	3	96	48	0
TAP	22	96	4
TAP	22	192	4
BRK	22	288	7
HLD	23	0	6	144
TAP	23	96	7
TAP	23	144	7
TAP	23	240	0
TAP	23	240	5
TAP	23	288	0
TAP	23	288	5
HLD	24	0	1	144
TAP	24	96	0
TAP	24	144	0
TAP	24	240	2
TAP	24	240	7
TAP	24	288	2
TAP	24	288	7
HLD	25	0	6	144
TAP	25	96	7
TAP	25	144	7
TAP	25	240	0
TAP	25	240	5
TAP	25	288	0
TAP	25	288	5
HLD	26	0	7	96
STR	26	96	0
SI_	26	96	0	96	48	3
TAP	26	192	7
BRK	26	288	4
HLD	27	0	5	144
TAP	27	96	4
TAP	27	144	4
TAP	27	240	3
TAP	27	240	6
TAP	27	288	3
TAP	27	288	6
HLD	28	0	2	144
TAP	28	96	3
TAP	28	144	3
TAP	28	240	1
TAP	28	240	4
TAP	28	288	1
TAP	28	288	4
HLD	29	0	5	144
TAP	29	96	4
TAP	29	144	4
TAP	29	240	3
TAP	29	240	6
TAP	29	288	3
TAP	29	288	6
TAP	30	0	2
TAP	30	0	5
TAP	30	96	3
STR	30	96	4
SI_	30	96	4	96	48	7
TAP	30	192	3
BRK	30	288	0
HLD	31	0	1	144
TAP	31	96	7
TAP	31	144	0
TAP	31	240	2
TAP	31	240	7
TAP	31	288	2
TAP	31	288	7
HLD	32	0	6	144
TAP	32	96	0
TAP	32	144	7
TAP	32	240	0
TAP	32	240	5
TAP	32	288	0
TAP	32	288	5
HLD	33	0	1	144
TAP	33	96	7
TAP	33	144	0
TAP	33	240	2
TAP	33	240	7
TAP	33	288	2
TAP	33	288	7
TAP	34	0	1
TAP	34	0	6
TAP	34	96	0
STR	34	96	7
SI_	34	96	7	96	48	4
TAP	34	192	0
BRK	34	288	3
HLD	35	0	4	144
TAP	35	96	2
TAP	35	144	3
TAP	35	240	2
TAP	35	240	5
STR	35	288	2
SCL	35	288	2	96	192	5
TAP	35	288	5
TAP	37	0	6
TAP	37	0	7
TAP	37	96	0
TAP	37	96	1
BRK	37	192	1
BRK	37	192	6
STR	38	0	0
SCR	38	0	0	96	96	3
HLD	38	0	7	192
STR	39	0	4
SCL	39	0	4	96	96	1
HLD	39	0	5	192
HLD	40	0	0	192
STR	40	0	7
SCL	40	0	7	96	96	4
TAP	41	0	6
TAP	41	96	4
TAP	41	96	5
TAP	41	192	1
TAP	41	288	2
TAP	41	288	3
HLD	42	0	3	192
STR	42	0	4
SCR	42	0	4	96	96	7
STR	43	0	0
SCL	43	0	0	96	96	5
HLD	43	0	1	192
STR	44	0	3
SCL	44	0	3	96	96	0
HLD	44	0	4	192
TAP	45	0	2
TAP	45	96	0
TAP	45	96	1
TAP	45	192	5
TAP	45	288	6
TAP	45	288	7
TAP	46	0	0
TAP	46	0	7
TAP	46	96	0
TAP	46	96	7
TAP	46	192	1
TAP	46	192	6
STR	46	288	1
SLR	46	288	1	96	192	0
STR	46	288	6
SLL	46	288	6	96	192	7
BRK	47	288	1
BRK	47	288	6
TAP	48	0	1
TAP	48	0	6
TAP	48	96	4
TAP	48	96	5
TAP	48	192	0
TAP	48	192	7
TAP	48	288	2
TAP	48	288	3
TAP	49	0	1
TAP	49	0	6
TAP	49	96	2
TAP	49	96	3
TAP	49	192	0
TAP	49	192	7
TAP	49	288	4
TAP	49	288	5
TAP	50	0	1
TAP	50	0	3
TAP	50	96	2
TAP	50	96	4
TAP	50	144	2
TAP	50	144	4
TAP	50	240	3
TAP	50	240	5
TAP	50	288	3
STR	50	288	5
SCR	50	288	5	96	192	3
TAP	51	288	2
TAP	51	288	5
TAP	52	0	1
TAP	52	0	6
TAP	52	96	2
TAP	52	96	3
TAP	52	192	0
TAP	52	192	7
TAP	52	288	4
TAP	52	288	5
TAP	53	0	1
TAP	53	0	6
TAP	53	96	4
TAP	53	96	5
TAP	53	192	0
TAP	53	192	7
TAP	53	288	2
TAP	53	288	3
TAP	54	0	4
TAP	54	0	6
TAP	54	96	3
TAP	54	96	5
TAP	54	144	3
TAP	54	144	5
TAP	54	240	2
TAP	54	240	4
TAP	54	288	2
STR	54	288	4
SCL	54	288	4	96	192	0
SUL	54	288	4	96	192	7
TAP	55	288	1
TAP	55	288	6
TAP	56	0	2
TAP	56	0	5
TAP	56	96	0
TAP	56	96	1
TAP	56	192	3
TAP	56	192	4
TAP	56	288	6
TAP	56	288	7
TAP	57	0	2
TAP	57	0	5
TAP	57	96	6
TAP	57	96	7
TAP	57	192	3
TAP	57	192	4
TAP	57	288	0
TAP	57	288	1
TAP	58	0	5
TAP	58	0	7
TAP	58	96	0
TAP	58	96	6
TAP	58	144	0
TAP	58	144	6
TAP	58	240	1
TAP	58	240	7
TAP	58	288	1
STR	58	288	7
SCL	58	288	7	96	192	0
TAP	59	288	1
TAP	59	288	6
TAP	60	0	2
TAP	60	0	5
TAP	60	96	6
TAP	60	96	7
TAP	60	192	3
TAP	60	192	4
TAP	60	288	0
TAP	60	288	1
TAP	61	0	2
TAP	61	48	2
TAP	61	96	1
TAP	61	96	3
TAP	61	192	5
TAP	61	240	5
TAP	61	288	4
TAP	61	288	6
HLD	62	0	3	96
HLD	62	0	5	96
HLD	62	144	2	96
HLD	62	144	6	96
TAP	62	288	1
TAP	62	288	7
HLD	63	0	0	96
HLD	63	0	7	96
BRK	63	192	1
BRK	63	192	6
HLD	64	0	2	96
TAP	64	96	3
TAP	64	192	1
TAP	64	192	4
TAP	64	240	1
TAP	64	240	4
BRK	64	336	0
BRK	64	336	5
BRK	65	48	2
BRK	65	48	7
BRK	65	96	2
BRK	65	96	7
BRK	65	192	1
BRK	65	192	6
HLD	66	0	5	672
TAP	66	96	4
TAP	66	192	4
TAP	66	288	4
TAP	67	0	3
TAP	67	96	3
TAP	67	192	3
TAP	67	288	3
HLD	68	0	2	672
TAP	68	96	3
TAP	68	192	3
TAP	68	288	3
TAP	69	0	4
TAP	69	96	4
TAP	69	192	4
TAP	69	288	4
HLD	70	0	5	672
TAP	70	96	4
TAP	70	192	3
TAP	70	288	3
TAP	71	0	4
TAP	71	96	4
TAP	71	192	3
TAP	71	288	3
HLD	72	0	2	672
TAP	72	96	3
TAP	72	192	4
TAP	72	288	4
TAP	73	0	3
TAP	73	96	3
TAP	73	192	4
TAP	73	288	4
TAP	74	0	5
TAP	74	96	4
TAP	74	96	6
TAP	74	144	4
TAP	74	144	6
TAP	74	240	3
TAP	74	240	7
TAP	74	288	3
TAP	74	288	7
TAP	75	0	2
TAP	75	96	1
TAP	75	96	3
TAP	75	144	1
TAP	75	144	3
TAP	75	240	0
TAP	75	240	4
TAP	75	288	0
TAP	75	288	4
TAP	76	0	1
TAP	76	96	0
TAP	76	96	2
TAP	76	144	0
TAP	76	144	2
TAP	76	240	3
TAP	76	240	7
TAP	76	288	3
TAP	76	288	7
TAP	77	0	6
TAP	77	96	5
TAP	77	96	7
TAP	77	144	5
TAP	77	144	7
TAP	77	240	0
TAP	77	240	4
TAP	77	288	0
TAP	77	288	4
TAP	78	0	1
TAP	78	0	6
TAP	78	96	2
TAP	78	144	3
TAP	78	192	1
TAP	78	240	4
TAP	78	288	0
TAP	79	0	1
TAP	79	0	6
TAP	79	96	5
TAP	79	144	4
TAP	79	192	6
TAP	79	240	3
TAP	79	288	7
HLD	80	0	0	96
HLD	80	0	7	96
HLD	80	192	1	96
HLD	80	192	6	96
HLD	81	0	2	96
HLD	81	0	5	96
STR	81	192	3
SXR	81	192	3	96	480	0
STR	81	192	4
SXL	81	192	4	96	480	7
BRK	83	192	1
BRK	83	192	6
TAP	84	0	0
TAP	84	0	7
TAP	84	96	4
TAP	84	96	6
TAP	84	192	0
TAP	84	192	2
TAP	84	288	1
TAP	84	288	6
TAP	85	0	3
TAP	85	0	4
TAP	85	96	0
TAP	85	96	2
TAP	85	192	4
TAP	85	192	6
TAP	85	288	2
TAP	85	288	5
TAP	86	0	0
TAP	86	0	7
TAP	86	96	1
TAP	86	96	3
TAP	86	144	1
TAP	86	144	3
TAP	86	240	4
TAP	86	240	6
STR	86	288	4
SCR	86	288	4	96	192	3
SUR	86	288	4	96	192	3
TAP	86	288	6
TAP	87	288	2
TAP	87	288	5
TAP	88	0	0
TAP	88	0	7
TAP	88	96	1
TAP	88	96	3
TAP	88	192	5
TAP	88	192	7
TAP	88	288	1
TAP	88	288	6
TAP	89	0	3
TAP	89	0	4
TAP	89	96	5
TAP	89	96	7
TAP	89	192	1
TAP	89	192	3
TAP	89	288	2
TAP	89	288	5
TAP	90	0	0
TAP	90	0	7
TAP	90	96	4
TAP	90	96	6
TAP	90	144	4
TAP	90	144	6
TAP	90	240	1
TAP	90	240	3
TAP	90	288	1
STR	90	288	3
SCL	90	288	3	96	192	7
SCR	90	288	3	96	192	7
BRK	91	288	1
BRK	91	288	6
TAP	92	0	2
TAP	92	0	3
TAP	92	96	0
TAP	92	96	7
TAP	92	192	4
TAP	92	192	6
TAP	92	288	1
TAP	92	288	3
TAP	93	0	4
TAP	93	0	5
TAP	93	96	0
TAP	93	96	7
TAP	93	192	1
TAP	93	192	3
TAP	93	288	4
TAP	93	288	6
TAP	94	0	2
TAP	94	0	3
TAP	94	96	5
TAP	94	96	7
TAP	94	144	5
TAP	94	144	7
TAP	94	240	0
TAP	94	240	2
STR	94	288	0
SCR	94	288	0	96	192	7
SUR	94	288	0	96	192	7
TAP	94	288	2
TAP	95	288	2
TAP	95	288	5
TAP	96	0	5
TAP	96	0	7
TAP	96	96	1
TAP	96	96	3
TAP	96	192	4
TAP	96	192	6
TAP	96	288	0
TAP	96	288	2
TAP	97	0	6
TAP	97	0	7
TAP	97	48	6
TAP	97	96	4
TAP	97	96	6
TAP	97	192	0
TAP	97	192	1
TAP	97	240	1
TAP	97	288	1
TAP	97	288	3
HLD	98	0	4	96
HLD	98	0	5	96
HLD	98	144	3	96
HLD	98	144	6	96
TAP	98	288	0
TAP	98	288	1
HLD	99	0	0	96
HLD	99	0	7	96
BRK	99	192	1
BRK	99	192	6
HLD	100	0	2	96
TAP	100	96	3
TAP	100	192	1
TAP	100	192	4
TAP	100	240	1
TAP	100	240	4
BRK	100	336	0
BRK	100	336	5
BRK	101	48	2
BRK	101	48	7
BRK	101	96	2
BRK	101	96	7
BRK	101	192	1
BRK	101	192	6
HLD	102	0	5	96
TAP	102	96	4
TAP	102	192	3
TAP	102	192	6
TAP	102	240	3
TAP	102	240	6
BRK	102	336	2
BRK	102	336	7
BRK	103	48	0
BRK	103	48	5
BRK	103	96	0
BRK	103	96	5
BRK	103	192	1
BRK	103	192	6

T_REC_TAP	430
T_REC_BRK	62
T_REC_XTP	0
T_REC_HLD	48
T_REC_XHO	0
T_REC_STR	23
T_REC_BST	0
T_REC_XST	0
T_REC_TTP	0
T_REC_THO	0
T_REC_SLD	27
T_REC_ALL	590
T_NUM_TAP	453
T_NUM_BRK	62
T_NUM_HLD	48
T_NUM_SLD	27
T_NUM_ALL	590
T_JUDGE_TAP	515
T_JUDGE_HLD	202
T_JUDGE_SLD	27
T_JUDGE_ALL	744
TTM_EACHPAIRS	222
TTM_SCR_TAP	226500
TTM_SCR_BRK	161200
TTM_SCR_HLD	48000
TTM_SCR_SLD	40500
TTM_SCR_ALL	476200
TTM_SCR_S	455900
TTM_SCR_SS	470000
TTM_RAT_ACV	10131

