VERSION	0.00.00	1.03.00
FES_MODE	0
BPM_DEF	200.000	200.000	200.000	200.000
MET_DEF	4	4
RESOLUTION	384
CLK_DEF	384
COMPATIBLE_CODE	MA2

BPM	0	0	200.000
MET	0	0	4	4

HLD	8	192	3	1248
HLD	10	0	4	672
TAP	12	0	2
TAP	12	96	2
TAP	12	192	2
TAP	12	192	3
TAP	13	0	1
TAP	13	96	0
TAP	13	96	7
TAP	13	192	0
TAP	13	192	7
TAP	13	288	0
TAP	13	288	7
TAP	14	0	5
TAP	14	96	5
TAP	14	192	4
TAP	14	192	5
TAP	15	0	0
TAP	15	0	7
TAP	15	96	0
TAP	15	96	7
TAP	15	192	0
TAP	15	192	7
TAP	15	288	0
TAP	15	288	7
TAP	16	0	2
TAP	16	96	2
TAP	16	192	2
TAP	16	192	3
TAP	17	0	1
TAP	17	96	1
TAP	17	192	0
TAP	17	192	7
TAP	17	288	0
TAP	17	288	7
TAP	18	0	5
TAP	18	96	5
TAP	18	192	4
TAP	18	192	5
TAP	19	0	0
TAP	19	0	7
TAP	19	96	0
TAP	19	96	7
TAP	19	192	0
TAP	19	192	7
BST	19	288	0
SXL	19	288	0	96	480	3
BST	19	288	7
SXR	19	288	7	96	480	4
TAP	22	0	4
TAP	22	96	5
TAP	22	192	6
BRK	22	288	7
TAP	23	0	0
TAP	23	96	0
TAP	23	192	1
TAP	24	0	2
TAP	24	96	2
TAP	24	192	3
TAP	25	0	3
TAP	25	96	4
TAP	25	192	2
TAP	25	192	5
TAP	26	0	3
TAP	26	96	2
TAP	26	192	1
BRK	26	288	0
TAP	27	0	7
TAP	27	96	7
TAP	27	192	6
TAP	28	0	5
TAP	28	96	5
TAP	28	192	4
TAP	29	0	4
TAP	29	96	3
TAP	29	192	2
TAP	29	192	5
TAP	30	0	5
TAP	30	96	6
TAP	30	192	7
BRK	30	288	0
TAP	31	0	1
TAP	31	96	1
TAP	31	192	0
TAP	31	192	1
TAP	32	0	2
TAP	32	96	2
TAP	32	192	2
TAP	32	192	3
TAP	33	0	3
TAP	33	96	4
TAP	33	192	2
TAP	33	192	5
TAP	34	0	2
TAP	34	96	1
TAP	34	192	0
BRK	34	288	7
TAP	35	0	6
TAP	35	96	6
TAP	35	192	6
TAP	35	192	7
TAP	36	0	5
TAP	36	96	5
TAP	36	192	4
TAP	36	192	5
TAP	37	0	3
TAP	37	0	4
TAP	37	96	3
TAP	37	96	4
TAP	37	192	2
TAP	37	192	5
HLD	38	0	2	192
TAP	38	96	3
STR	38	192	3
SUR	38	192	3	96	384	6
HLD	40	0	0	192
TAP	40	96	7
TAP	40	192	7
TAP	41	0	7
TAP	41	96	0
TAP	41	192	1
TAP	41	192	6
HLD	42	0	5	192
TAP	42	96	4
STR	42	192	4
SUL	42	192	4	96	384	1
HLD	44	0	7	192
TAP	44	96	0
TAP	44	192	0
HLD	45	0	0	96
HLD	45	0	7	96
BRK	45	192	0
BRK	45	192	7
STR	46	0	3
SXR	46	0	3	96	480	0
STR	46	0	4
SXL	46	0	4	96	480	7
TAP	48	0	6
TAP	48	96	6
TAP	48	192	6
TAP	48	192	7
TAP	49	0	1
TAP	49	96	1
TAP	49	192	0
TAP	49	192	1
TAP	50	0	6
TAP	50	96	6
TAP	50	96	7
TAP	50	192	1
TAP	50	288	0
STR	50	288	1
SI_	50	288	1	96	192	4
TAP	52	0	5
TAP	52	96	5
TAP	52	192	4
TAP	52	192	5
HLD	53	0	2	96
HLD	53	0	3	96
TAP	53	192	2
TAP	53	192	3
TAP	54	0	5
TAP	54	96	4
TAP	54	96	5
TAP	54	192	2
TAP	54	288	2
TAP	54	288	3
TAP	55	0	4
TAP	55	96	3
BRK	55	192	2
BRK	55	192	5
TAP	56	0	1
TAP	56	96	1
TAP	56	192	0
TAP	56	192	1
TAP	57	0	6
TAP	57	96	6
TAP	57	192	6
TAP	57	192	7
TAP	58	0	1
TAP	58	96	0
TAP	58	96	1
TAP	58	192	6
STR	58	288	6
SI_	58	288	6	96	192	3
TAP	58	288	7
TAP	60	0	2
TAP	60	96	2
TAP	60	192	2
TAP	60	192	3
TAP	61	0	5
TAP	61	96	5
TAP	61	192	4
TAP	61	192	5
TAP	62	0	2
TAP	62	96	2
TAP	62	96	3
TAP	62	192	5
STR	62	288	4
SI_	62	288	4	96	192	1
STR	62	288	5
SI_	62	288	5	96	192	0
TAP	64	0	6
TAP	64	96	6
TAP	64	96	7
TAP	64	192	1
TAP	64	288	0
TAP	64	288	1
BRK	65	0	7
BRK	65	96	0
BRK	65	192	7
HLD	66	0	1	192
TAP	66	192	0
HLD	67	0	2	192
HLD	67	192	3	192
HLD	68	0	4	192
TAP	68	192	5
HLD	69	0	5	192
HLD	69	192	4	192
HLD	70	0	3	192
TAP	70	192	2
HLD	71	0	2	192
HLD	71	192	3	192
HLD	72	0	4	192
TAP	72	192	5
HLD	73	0	6	192
TAP	73	192	7
HLD	74	0	5	192
TAP	74	96	4
TAP	74	192	4
HLD	75	0	2	192
TAP	75	96	3
TAP	75	192	3
HLD	76	0	6	192
TAP	76	96	5
TAP	76	192	5
HLD	77	0	1	192
TAP	77	96	2
TAP	77	192	2
HLD	78	0	6	192
TAP	78	96	7
TAP	78	192	7
HLD	79	0	1	192
TAP	79	96	0
TAP	79	192	0
TAP	80	0	6
TAP	80	96	6
TAP	80	96	7
TAP	80	192	1
TAP	80	288	0
TAP	80	288	1
TAP	81	0	7
TAP	81	96	0
TAP	81	96	7
BST	81	192	0
SCR	81	192	0	96	672	7
BRK	81	192	7
TAP	84	0	1
TAP	84	96	1
TAP	84	192	0
TAP	84	192	2
TAP	85	0	6
TAP	85	96	6
TAP	85	192	5
TAP	85	192	7
TAP	86	0	1
TAP	86	96	0
TAP	86	96	2
TAP	86	192	6
STR	86	288	5
SI_	86	288	5	96	192	2
TAP	86	288	7
TAP	88	0	2
TAP	88	96	2
TAP	88	192	2
TAP	88	192	3
HLD	89	0	4	96
HLD	89	0	5	96
TAP	89	192	4
TAP	89	192	5
TAP	90	0	2
TAP	90	96	2
TAP	90	96	3
TAP	90	192	5
TAP	90	288	4
TAP	90	288	5
TAP	91	0	3
TAP	91	0	4
TAP	91	96	3
TAP	91	96	4
BRK	91	192	2
BRK	91	192	5
TAP	92	0	6
TAP	92	96	6
TAP	92	192	5
TAP	92	192	7
TAP	93	0	1
TAP	93	96	1
TAP	93	192	0
TAP	93	192	2
TAP	94	0	6
TAP	94	96	5
TAP	94	96	7
TAP	94	192	1
TAP	94	288	0
STR	94	288	2
SI_	94	288	2	96	192	5
TAP	96	0	5
TAP	96	96	5
TAP	96	192	4
TAP	96	192	5
TAP	97	0	2
TAP	97	96	2
TAP	97	192	2
TAP	97	192	3
TAP	98	0	5
TAP	98	96	4
TAP	98	96	5
TAP	98	192	2
STR	98	288	2
SCL	98	288	2	96	192	7
STR	98	288	3
SCR	98	288	3	96	192	6
TAP	100	0	1
TAP	100	96	0
TAP	100	96	1
TAP	100	192	6
TAP	100	288	6
TAP	100	288	7
BRK	101	0	0
BRK	101	96	7
BRK	101	192	0
TAP	102	0	6
TAP	102	96	6
TAP	102	96	7
TAP	102	192	1
TAP	102	288	0
TAP	102	288	1
BRK	103	0	0
BRK	103	0	7
BRK	103	96	0
BRK	103	96	7
BRK	103	192	0
BRK	103	192	7

T_REC_TAP	261
T_REC_BRK	23
T_REC_XTP	0
T_REC_HLD	29
T_REC_XHO	0
T_REC_STR	12
T_REC_BST	3
T_REC_XST	0
T_REC_TTP	0
T_REC_THO	0
T_REC_SLD	15
T_REC_ALL	343
T_NUM_TAP	273
T_NUM_BRK	26
T_NUM_HLD	29
T_NUM_SLD	15
T_NUM_ALL	343
T_JUDGE_TAP	299
T_JUDGE_HLD	136
T_JUDGE_SLD	15
T_JUDGE_ALL	450
TTM_EACHPAIRS	82
TTM_SCR_TAP	136500
TTM_SCR_BRK	67600
TTM_SCR_HLD	29000
TTM_SCR_SLD	22500
TTM_SCR_ALL	255600
TTM_SCR_S	245450
TTM_SCR_SS	253000
TTM_RAT_ACV	10102

