VERSION	0.00.00	1.03.00
FES_MODE	0
BPM_DEF	200.000	200.000	200.000	200.000
MET_DEF	4	4
RESOLUTION	384
CLK_DEF	384
COMPATIBLE_CODE	MA2

BPM	0	0	200.000
MET	0	0	4	4

TAP	12	0	7
TAP	12	192	7
TAP	13	0	6
TAP	13	192	6
TAP	14	0	5
TAP	14	192	5
TAP	15	0	3
TAP	15	0	4
TAP	15	192	3
TAP	15	192	4
TAP	16	0	3
TAP	16	192	3
TAP	17	0	2
TAP	17	192	2
TAP	18	0	1
TAP	18	192	1
TAP	19	0	0
TAP	19	0	7
TAP	19	192	0
TAP	19	192	7
STR	20	0	0
SI_	20	0	0	96	288	4
TAP	23	0	7
TAP	23	192	7
TAP	24	0	6
TAP	24	192	6
HLD	25	0	5	384
TAP	27	0	4
TAP	27	192	4
TAP	28	0	3
TAP	28	192	3
HLD	29	0	2	384
TAP	31	0	1
TAP	31	192	1
TAP	32	0	0
TAP	32	192	0
HLD	33	0	7	384
TAP	35	0	6
TAP	35	192	6
TAP	36	0	5
TAP	36	192	5
TAP	37	0	4
TAP	37	96	3
TAP	37	192	4
STR	38	0	3
SI_	38	0	3	96	288	0
STR	40	0	4
SI_	40	0	4	96	288	7
STR	42	0	0
SI_	42	0	0	96	288	5
STR	44	0	7
SI_	44	0	7	96	288	2
HLD	46	0	0	384
BRK	48	0	1
TAP	48	96	1
TAP	48	192	1
TAP	49	0	2
TAP	49	96	2
TAP	49	192	2
TAP	50	0	3
TAP	50	96	3
TAP	50	192	3
TAP	51	0	4
TAP	51	96	4
TAP	51	192	3
TAP	51	192	4
TAP	52	0	5
TAP	52	96	5
TAP	52	192	5
TAP	53	0	6
TAP	53	96	6
TAP	53	192	6
TAP	54	0	7
TAP	54	96	7
TAP	54	192	7
TAP	55	0	0
TAP	55	96	0
TAP	55	192	0
TAP	55	192	7
TAP	56	0	6
TAP	56	96	6
TAP	56	192	6
TAP	57	0	5
TAP	57	96	5
TAP	57	192	5
TAP	58	0	4
TAP	58	96	4
TAP	58	192	4
TAP	59	0	3
TAP	59	96	3
TAP	59	192	3
TAP	59	192	4
TAP	60	0	2
TAP	60	96	2
TAP	60	192	2
TAP	61	0	1
TAP	61	96	1
TAP	61	192	1
TAP	62	0	0
TAP	62	96	0
TAP	62	192	0
TAP	63	0	7
TAP	63	96	7
TAP	63	192	0
TAP	63	192	7
TAP	64	0	0
TAP	64	192	0
TAP	65	0	7
TAP	65	96	7
BRK	65	192	7
STR	66	0	6
SI_	66	0	6	96	288	3
STR	68	0	1
SI_	68	0	1	96	288	4
STR	70	0	6
SI_	70	0	6	96	288	2
STR	72	0	1
SI_	72	0	1	96	288	5
TAP	74	0	6
TAP	74	192	6
TAP	75	0	7
TAP	75	192	7
TAP	76	0	0
TAP	76	192	0
TAP	77	0	1
TAP	78	0	2
TAP	78	192	2
TAP	79	0	3
TAP	79	192	3
TAP	80	0	4
TAP	80	192	4
TAP	81	0	5
TAP	81	192	5
TAP	84	0	7
TAP	84	96	7
TAP	84	192	7
TAP	85	0	6
TAP	85	96	6
TAP	85	192	6
TAP	86	0	5
TAP	86	96	5
TAP	86	192	5
TAP	87	0	4
TAP	87	0	5
TAP	87	96	4
TAP	87	96	5
TAP	87	192	4
TAP	87	192	5
TAP	88	0	4
TAP	88	96	4
TAP	88	192	4
TAP	89	0	3
TAP	89	96	3
TAP	89	192	3
TAP	90	0	2
TAP	90	96	2
TAP	90	192	2
TAP	91	0	2
TAP	91	0	3
TAP	91	96	2
TAP	91	96	3
TAP	91	192	2
TAP	91	192	3
TAP	92	0	1
TAP	92	96	1
TAP	92	192	1
TAP	93	0	2
TAP	93	96	2
TAP	93	192	2
TAP	94	0	3
TAP	94	96	3
TAP	94	192	3
TAP	95	0	3
TAP	95	0	4
TAP	95	96	3
TAP	95	96	4
TAP	95	192	3
TAP	95	192	4
TAP	96	0	5
TAP	96	96	5
TAP	96	192	5
TAP	97	0	6
TAP	97	96	6
TAP	97	192	6
TAP	98	0	7
TAP	98	96	7
TAP	98	192	7
TAP	99	0	0
TAP	99	0	7
TAP	99	96	0
TAP	99	96	7
TAP	99	192	0
TAP	99	192	7
TAP	100	0	0
TAP	100	192	0
TAP	101	0	7
TAP	101	96	7
BRK	101	192	7
TAP	102	0	0
TAP	102	0	7
TAP	102	192	0
TAP	102	192	7
TAP	103	0	0
TAP	103	0	7
TAP	103	96	0
TAP	103	96	7
BRK	103	192	0
BRK	103	192	7

T_REC_TAP	181
T_REC_BRK	5
T_REC_XTP	0
T_REC_HLD	4
T_REC_XHO	0
T_REC_STR	9
T_REC_BST	0
T_REC_XST	0
T_REC_TTP	0
T_REC_THO	0
T_REC_SLD	9
T_REC_ALL	208
T_NUM_TAP	190
T_NUM_BRK	5
T_NUM_HLD	4
T_NUM_SLD	9
T_NUM_ALL	208
T_JUDGE_TAP	195
T_JUDGE_HLD	32
T_JUDGE_SLD	9
T_JUDGE_ALL	236
TTM_EACHPAIRS	25
TTM_SCR_TAP	95000
TTM_SCR_BRK	13000
TTM_SCR_HLD	4000
TTM_SCR_SLD	13500
TTM_SCR_ALL	125500
TTM_SCR_S	121250
TTM_SCR_SS	125000
TTM_RAT_ACV	10040

