VERSION	0.00.00	1.03.00
FES_MODE	0
BPM_DEF	154.000	154.000	154.000	154.000
MET_DEF	4	4
RESOLUTION	384
CLK_DEF	384
COMPATIBLE_CODE	MA2

BPM	0	0	154.000
MET	0	0	4	4

HLD	1	240	3	48
TAP	1	240	4
TAP	1	288	4
TAP	2	0	0
TAP	2	0	3
TAP	2	144	2
TAP	2	144	6
TAP	2	288	4
TAP	2	288	7
TAP	3	48	3
TAP	3	48	6
TAP	3	96	2
TAP	3	96	5
TAP	3	144	1
TAP	3	144	4
TAP	3	192	0
HLD	3	192	3	64
HLD	3	256	4	64
HLD	3	320	7	64
TAP	4	0	0
STR	5	0	4
SI_	5	0	4	96	48	1
TAP	5	0	5
TAP	5	48	5
TAP	5	96	4
TAP	5	96	6
TAP	5	144	6
HLD	5	192	5	72
HLD	5	264	4	72
TAP	5	336	3
TAP	6	0	2
STR	6	0	3
SI_	6	0	3	96	48	6
TAP	6	48	2
TAP	6	96	1
TAP	6	96	3
TAP	6	144	1
HLD	6	192	2	72
HLD	6	264	3	72
TAP	6	336	4
STR	7	0	4
SI_	7	0	4	96	48	0
TAP	7	0	5
TAP	7	48	5
TAP	7	96	4
TAP	7	96	6
TAP	7	144	6
HLD	7	192	5	72
HLD	7	264	4	72
TAP	7	336	3
TAP	8	0	2
TAP	8	0	5
HLD	8	48	1	72
HLD	8	120	3	72
HLD	8	192	4	72
HLD	8	264	6	72
TAP	8	336	1
TAP	9	0	2
STR	9	0	3
SI_	9	0	3	96	48	6
TAP	9	48	2
TAP	9	96	1
TAP	9	96	3
TAP	9	144	1
HLD	9	192	0	72
HLD	9	264	3	72
TAP	9	336	4
STR	10	0	4
SI_	10	0	4	96	48	1
TAP	10	0	5
TAP	10	48	5
TAP	10	96	4
TAP	10	96	6
TAP	10	144	6
HLD	10	192	7	72
HLD	10	264	4	72
TAP	10	336	3
TAP	11	0	2
STR	11	0	3
SI_	11	0	3	96	48	7
TAP	11	48	2
TAP	11	96	1
TAP	11	96	3
TAP	11	144	1
HLD	11	192	0	72
HLD	11	264	3	72
TAP	11	336	4
TAP	12	0	3
TAP	12	0	4
TAP	12	48	1
HLD	12	48	6	72
HLD	12	120	4	72
HLD	12	192	3	72
HLD	12	264	1	456
HLD	12	336	6	384
TAP	14	0	3
TAP	14	0	4
TAP	14	96	3
TAP	14	96	4
TAP	14	192	3
STR	14	192	4
SI_	14	192	4	96	48	6
TAP	14	288	3
TAP	14	288	4
TAP	14	336	3
TAP	15	0	3
TAP	15	0	6
TAP	15	96	3
TAP	15	96	6
TAP	15	192	3
STR	15	192	6
SI_	15	192	6	96	48	0
TAP	15	288	3
TAP	15	288	6
TAP	15	336	3
TAP	16	0	0
TAP	16	0	3
TAP	16	96	0
TAP	16	96	3
STR	16	192	0
SI_	16	192	0	96	48	2
TAP	16	192	3
TAP	16	288	0
TAP	16	288	3
TAP	16	336	3
TAP	17	0	2
TAP	17	0	3
TAP	17	96	2
TAP	17	96	3
STR	17	192	2
SI_	17	192	2	96	48	4
TAP	17	192	3
TAP	17	288	2
TAP	17	288	3
TAP	18	0	3
TAP	18	0	4
TAP	18	96	3
TAP	18	96	4
STR	18	192	3
SI_	18	192	3	96	48	1
TAP	18	192	4
TAP	18	288	3
TAP	18	288	4
TAP	18	336	4
TAP	19	0	1
TAP	19	0	4
TAP	19	96	1
TAP	19	96	4
STR	19	192	1
SI_	19	192	1	96	48	7
TAP	19	192	4
TAP	19	288	1
TAP	19	288	4
TAP	19	336	4
TAP	20	0	4
TAP	20	0	7
TAP	20	96	4
TAP	20	96	7
TAP	20	192	4
STR	20	192	7
SI_	20	192	7	96	48	5
STR	20	288	4
SI_	20	288	4	96	48	0
TAP	20	288	7
STR	21	0	3
SI_	21	0	3	96	48	7
STR	21	96	5
SI_	21	96	5	96	48	0
STR	21	192	2
SI_	21	192	2	96	48	7
TAP	21	288	4
TAP	22	0	1
TAP	22	0	6
TAP	22	96	2
TAP	22	96	3
TAP	22	144	5
TAP	22	168	4
HLD	22	192	6	72
HLD	22	264	5	72
TAP	22	336	4
TAP	23	0	3
TAP	23	0	7
TAP	23	96	4
TAP	23	96	5
TAP	23	144	2
TAP	23	168	3
HLD	23	192	1	72
HLD	23	264	2	72
TAP	23	336	3
TAP	24	0	0
TAP	24	0	4
TAP	24	96	2
TAP	24	96	3
TAP	24	144	5
TAP	24	168	4
HLD	24	192	6	72
HLD	24	264	5	72
TAP	24	336	4
STR	25	0	7
SF_	25	0	7	96	48	3
TAP	25	96	7
STR	25	192	0
SF_	25	192	0	96	48	4
TAP	25	288	0
TAP	26	0	1
TAP	26	0	6
TAP	26	96	4
TAP	26	96	5
TAP	26	144	2
TAP	26	168	3
HLD	26	192	0	72
HLD	26	264	2	72
TAP	26	336	3
TAP	27	0	3
TAP	27	0	6
TAP	27	96	2
TAP	27	96	3
TAP	27	144	5
TAP	27	168	4
HLD	27	192	7	72
HLD	27	264	5	72
TAP	27	336	4
STR	28	0	1
SI_	28	0	1	96	48	4
TAP	28	0	4
TAP	28	48	5
TAP	28	96	6
TAP	28	144	7
STR	28	192	0
SI_	28	192	0	96	48	5
TAP	28	192	4
TAP	28	240	3
TAP	28	288	2
TAP	28	336	1
STR	29	0	0
SI_	29	0	0	96	48	4
STR	29	0	7
SI_	29	0	7	96	48	3
TAP	29	96	0
TAP	29	96	7
BRK	29	192	1
BRK	29	192	6
STR	30	0	2
SCR	30	0	2	96	48	5
TAP	30	0	6
TAP	30	48	1
TAP	30	96	0
TAP	30	96	2
TAP	30	144	6
TAP	30	192	1
STR	30	192	5
SCL	30	192	5	96	48	2
TAP	30	240	6
TAP	30	288	5
TAP	30	288	7
TAP	30	336	0
STR	31	0	1
SCL	31	0	1	96	48	6
TAP	31	0	4
TAP	31	48	2
TAP	31	96	1
TAP	31	96	3
TAP	31	144	5
TAP	31	192	3
STR	31	192	6
SCR	31	192	6	96	48	1
TAP	31	240	5
TAP	31	288	4
TAP	31	288	6
TAP	31	336	2
TAP	32	0	3
TAP	32	48	5
TAP	32	96	4
TAP	32	96	6
TAP	32	144	7
TAP	32	192	4
TAP	32	240	2
TAP	32	288	1
TAP	32	288	3
TAP	32	336	0
TAP	33	0	1
TAP	33	0	6
STR	33	48	1
SSR	33	48	1	96	192	5
TAP	33	48	7
TAP	33	96	0
HLD	33	96	1	144
TAP	33	288	1
TAP	33	336	1
STR	34	0	0
SUR	34	0	0	96	48	4
TAP	34	48	7
TAP	34	96	0
TAP	34	96	5
TAP	34	144	6
STR	34	192	7
SUL	34	192	7	96	48	3
TAP	34	240	0
TAP	34	288	2
TAP	34	288	7
TAP	34	336	1
STR	35	0	0
SUR	35	0	0	96	48	4
TAP	35	48	7
TAP	35	96	0
STR	35	96	6
SCR	35	96	6	96	48	1
TAP	35	144	5
TAP	35	192	2
TAP	35	192	6
TAP	35	288	3
TAP	35	336	4
TAP	36	0	5
STR	36	48	4
SI_	36	48	4	96	48	1
STR	36	48	5
SI_	36	48	5	96	48	0
TAP	36	96	3
TAP	36	96	6
TAP	36	240	3
STR	36	240	6
SXL	36	240	6	96	240	1
TAP	36	288	5
TAP	36	336	4
TAP	37	0	3
TAP	37	48	2
TAP	37	96	2
TAP	37	144	3
TAP	37	192	4
TAP	37	240	5
TAP	37	288	1
TAP	37	288	6
TAP	38	0	1
STR	38	0	5
SCL	38	0	5	96	48	2
TAP	38	48	6
TAP	38	96	5
TAP	38	96	7
TAP	38	144	0
STR	38	192	2
SCR	38	192	2	96	48	5
TAP	38	192	6
TAP	38	240	1
TAP	38	288	0
TAP	38	288	2
TAP	38	336	7
TAP	39	0	3
STR	39	0	6
SCR	39	0	6	96	48	1
TAP	39	48	5
TAP	39	96	4
TAP	39	96	6
TAP	39	144	2
STR	39	192	1
SCL	39	192	1	96	48	6
TAP	39	192	4
TAP	39	240	2
TAP	39	288	1
TAP	39	288	3
TAP	39	336	5
TAP	40	0	4
TAP	40	48	2
TAP	40	96	1
TAP	40	96	3
TAP	40	144	0
TAP	40	192	3
TAP	40	240	5
TAP	40	288	4
TAP	40	288	6
TAP	40	336	7
TAP	41	0	1
TAP	41	0	6
STR	41	48	1
SSR	41	48	1	96	192	5
TAP	41	48	7
TAP	41	96	0
HLD	41	96	1	144
STR	41	288	0
SI_	41	288	0	96	48	4
TAP	42	0	0
TAP	42	0	4
TAP	42	72	7
STR	42	96	7
SI_	42	96	7	96	48	3
TAP	42	144	4
TAP	42	192	7
TAP	42	264	1
STR	42	288	1
SI_	42	288	1	96	48	5
TAP	42	336	3
TAP	43	0	1
TAP	43	72	6
STR	43	96	6
SI_	43	96	6	96	48	2
TAP	43	144	4
TAP	43	192	6
TAP	43	288	2
STR	43	288	3
SUR	43	288	3	96	48	7
TAP	43	336	1
TAP	44	0	0
TAP	44	48	2
STR	44	96	4
SUL	44	96	4	96	48	0
TAP	44	96	5
TAP	44	144	6
TAP	44	192	7
TAP	44	240	5
STR	44	288	2
SI_	44	288	2	96	48	5
TAP	44	336	4
TAP	45	0	2
STR	45	0	6
SI_	45	0	6	96	48	1
HLD	45	96	4	96
TAP	45	96	6
BRK	45	192	7
HLD	46	0	0	72
HLD	46	72	2	72
TAP	46	144	3
HLD	46	192	7	72
HLD	46	264	5	72
TAP	46	336	4
TAP	47	48	2
TAP	47	48	3
HLD	47	96	1	192
HLD	47	96	4	192
TAP	47	336	3
TAP	47	360	2
HLD	48	0	7	72
HLD	48	72	5	72
TAP	48	144	4
HLD	48	192	0	72
HLD	48	264	2	72
TAP	48	336	3
TAP	49	48	4
TAP	49	48	5
TAP	49	96	3
TAP	49	96	6
TAP	49	192	3
TAP	49	216	4
TAP	49	240	3
TAP	49	264	4
TAP	49	288	2
TAP	49	312	5
TAP	49	336	2
TAP	49	360	5
HLD	50	0	2	72
HLD	50	72	0	72
TAP	50	144	7
HLD	50	192	5	72
HLD	50	264	7	72
TAP	50	336	0
TAP	51	48	3
TAP	51	48	4
TAP	51	96	2
TAP	51	96	5
TAP	51	192	3
TAP	51	216	2
TAP	51	216	4
TAP	51	288	4
TAP	51	312	3
TAP	51	312	5
HLD	52	0	4	72
HLD	52	72	6	72
TAP	52	144	7
HLD	52	192	3	72
HLD	52	264	1	72
TAP	52	336	0
TAP	53	48	3
TAP	53	48	5
STR	53	96	2
SCL	53	96	2	96	48	7
STR	53	96	6
SCL	53	96	6	96	48	3
HLD	53	288	0	1536
BRK	53	288	4
TAP	54	0	4
TAP	54	48	2
TAP	54	96	3
TAP	54	144	1
TAP	54	192	2
TAP	54	240	1
TAP	54	288	2
TAP	54	336	1
TAP	55	0	3
TAP	55	48	1
TAP	55	96	2
TAP	55	144	1
TAP	55	192	2
TAP	55	240	1
TAP	55	288	2
TAP	55	336	1
TAP	56	0	3
TAP	56	48	1
TAP	56	96	2
TAP	56	144	1
TAP	56	192	2
TAP	56	240	1
TAP	56	288	2
TAP	56	336	1
TAP	57	0	3
TAP	57	48	1
TAP	57	96	2
TAP	57	144	1
TAP	57	192	2
TAP	57	240	1
TAP	57	288	4
TAP	57	336	5
TAP	58	0	3
HLD	58	0	7	1152
TAP	58	48	5
TAP	58	96	4
TAP	58	144	6
TAP	58	192	5
TAP	58	240	6
TAP	58	288	5
TAP	58	336	6
TAP	59	0	4
TAP	59	48	6
TAP	59	96	5
TAP	59	144	6
TAP	59	192	5
TAP	59	240	6
TAP	59	288	5
TAP	59	336	6
TAP	60	0	4
TAP	60	48	6
TAP	60	96	5
TAP	60	144	6
TAP	60	192	5
TAP	60	240	6
TAP	60	288	5
TAP	60	336	6
STR	61	0	3
SI_	61	0	3	96	48	7
STR	61	96	5
SI_	61	96	5	96	48	0
STR	61	192	2
SI_	61	192	2	96	48	7
TAP	61	288	4
BRK	62	0	1
BRK	62	0	6
TAP	62	144	2
STR	62	168	3
SI_	62	168	3	96	48	7
TAP	62	192	1
TAP	62	264	2
TAP	62	336	0
TAP	63	0	3
TAP	63	0	6
TAP	63	144	5
STR	63	168	4
SI_	63	168	4	96	48	0
TAP	63	192	6
TAP	63	264	5
TAP	63	336	7
TAP	64	0	1
TAP	64	0	4
TAP	64	144	2
STR	64	168	3
SI_	64	168	3	96	48	7
TAP	64	192	1
TAP	64	264	2
TAP	64	336	0
STR	65	0	0
SF_	65	0	0	96	48	4
TAP	65	96	0
STR	65	192	7
SF_	65	192	7	96	48	3
TAP	65	288	7
TAP	66	0	1
TAP	66	0	6
TAP	66	144	5
STR	66	168	4
SCL	66	168	4	96	48	1
TAP	66	192	7
TAP	66	264	5
TAP	66	336	6
TAP	67	0	1
TAP	67	0	4
TAP	67	144	2
STR	67	168	3
SCR	67	168	3	96	48	6
TAP	67	192	0
TAP	67	264	2
TAP	67	336	1
TAP	68	0	3
STR	68	0	6
SI_	68	0	6	96	48	3
TAP	68	48	2
TAP	68	96	1
TAP	68	144	0
TAP	68	192	3
STR	68	192	7
SI_	68	192	7	96	48	2
TAP	68	240	4
TAP	68	288	5
TAP	68	336	6
STR	69	0	0
SI_	69	0	0	96	48	4
STR	69	0	7
SI_	69	0	7	96	48	3
TAP	69	96	0
TAP	69	96	7
BRK	69	192	1
BRK	69	192	6
TAP	70	0	1
STR	70	0	5
SCL	70	0	5	96	48	2
TAP	70	48	6
TAP	70	96	5
TAP	70	96	7
TAP	70	144	1
STR	70	192	2
SCR	70	192	2	96	48	5
TAP	70	192	6
TAP	70	240	1
TAP	70	288	0
TAP	70	288	2
TAP	70	336	7
TAP	71	0	3
STR	71	0	6
SCR	71	0	6	96	48	1
TAP	71	48	5
TAP	71	96	4
TAP	71	96	6
TAP	71	144	2
STR	71	192	1
SCL	71	192	1	96	48	6
TAP	71	192	4
TAP	71	240	2
TAP	71	288	1
TAP	71	288	3
TAP	71	336	5
TAP	72	0	4
TAP	72	48	2
TAP	72	96	1
TAP	72	96	3
TAP	72	144	0
TAP	72	192	3
TAP	72	240	5
TAP	72	288	4
TAP	72	288	6
TAP	72	336	7
TAP	73	0	1
TAP	73	0	6
STR	73	48	1
SSR	73	48	1	96	192	5
TAP	73	48	7
TAP	73	96	0
HLD	73	96	1	144
TAP	73	288	1
TAP	73	336	1
STR	74	0	4
SUR	74	0	4	96	48	0
TAP	74	48	3
TAP	74	96	1
TAP	74	96	4
TAP	74	144	3
STR	74	192	3
SUL	74	192	3	96	48	7
TAP	74	240	4
TAP	74	288	3
TAP	74	288	6
TAP	74	336	5
STR	75	0	4
SUR	75	0	4	96	48	0
TAP	75	48	3
STR	75	96	2
SCR	75	96	2	96	48	5
TAP	75	96	4
TAP	75	144	1
TAP	75	192	2
TAP	75	192	6
TAP	75	288	4
TAP	75	336	3
TAP	76	0	2
STR	76	48	2
SI_	76	48	2	96	48	7
STR	76	48	3
SI_	76	48	3	96	48	6
TAP	76	96	1
TAP	76	96	4
STR	76	240	1
SXR	76	240	1	96	240	6
TAP	76	240	4
TAP	76	288	2
TAP	76	336	3
TAP	77	0	4
TAP	77	48	5
TAP	77	96	5
TAP	77	144	4
TAP	77	192	3
TAP	77	240	2
TAP	77	288	1
TAP	77	288	6
STR	78	0	2
SCR	78	0	2	96	48	5
TAP	78	0	6
TAP	78	48	1
TAP	78	96	0
TAP	78	96	2
TAP	78	144	7
TAP	78	192	1
STR	78	192	5
SCL	78	192	5	96	48	2
TAP	78	240	6
TAP	78	288	5
TAP	78	288	7
TAP	78	336	0
STR	79	0	1
SCL	79	0	1	96	48	6
TAP	79	0	4
TAP	79	48	2
TAP	79	96	1
TAP	79	96	3
TAP	79	144	5
TAP	79	192	3
STR	79	192	6
SCR	79	192	6	96	48	1
TAP	79	240	5
TAP	79	288	4
TAP	79	288	6
TAP	79	336	2
TAP	80	0	3
TAP	80	48	5
TAP	80	96	4
TAP	80	96	6
TAP	80	144	7
TAP	80	192	4
TAP	80	240	2
TAP	80	288	1
TAP	80	288	3
TAP	80	336	0
TAP	81	0	1
TAP	81	0	6
STR	81	48	1
SSR	81	48	1	96	192	5
TAP	81	48	7
TAP	81	96	0
HLD	81	96	1	144
STR	81	288	3
SI_	81	288	3	96	48	7
TAP	82	0	3
TAP	82	0	6
TAP	82	72	5
STR	82	96	4
SI_	82	96	4	96	48	0
TAP	82	144	7
TAP	82	192	4
TAP	82	264	1
STR	82	288	2
SI_	82	288	2	96	48	7
TAP	82	336	0
TAP	83	0	2
TAP	83	72	6
STR	83	96	5
SI_	83	96	5	96	48	0
TAP	83	144	7
TAP	83	192	5
TAP	83	288	2
STR	83	288	3
SUR	83	288	3	96	48	7
TAP	83	336	1
TAP	84	0	0
TAP	84	48	2
STR	84	96	4
SUL	84	96	4	96	48	0
TAP	84	96	5
TAP	84	144	6
TAP	84	192	7
TAP	84	240	6
STR	84	288	5
SI_	84	288	5	96	48	2
TAP	84	336	3
STR	85	0	1
SI_	85	0	1	96	48	6
TAP	85	0	5
TAP	85	96	1
HLD	85	96	3	96
BRK	85	192	0
STR	86	0	4
SCL	86	0	4	96	48	1
TAP	86	0	5
TAP	86	48	7
TAP	86	96	4
TAP	86	96	5
TAP	86	144	6
HLD	86	192	7	72
HLD	86	264	4	72
TAP	86	336	3
TAP	87	0	2
STR	87	0	3
SCR	87	0	3	96	48	6
TAP	87	48	0
TAP	87	96	2
TAP	87	96	3
TAP	87	144	1
HLD	87	192	0	72
HLD	87	264	3	72
TAP	87	336	4
STR	88	0	4
SCL	88	0	4	96	48	1
TAP	88	0	5
TAP	88	48	7
TAP	88	96	4
TAP	88	96	5
TAP	88	144	6
HLD	88	192	7	72
HLD	88	264	4	72
TAP	88	336	3
TAP	89	0	3
TAP	89	0	4
HLD	89	48	1	72
TAP	89	48	6
HLD	89	120	3	72
TAP	89	192	4
TAP	89	256	4
TAP	89	256	6
TAP	89	320	0
TAP	89	320	7
TAP	90	0	4
TAP	90	0	6
TAP	90	64	1
TAP	90	64	3
TAP	90	128	3
BRK	90	128	7

T_REC_TAP	565
T_REC_BRK	10
T_REC_XTP	0
T_REC_HLD	69
T_REC_XHO	0
T_REC_STR	92
T_REC_BST	0
T_REC_XST	0
T_REC_TTP	0
T_REC_THO	0
T_REC_SLD	92
T_REC_ALL	828
T_NUM_TAP	657
T_NUM_BRK	10
T_NUM_HLD	69
T_NUM_SLD	92
T_NUM_ALL	828
T_JUDGE_TAP	667
T_JUDGE_HLD	211
T_JUDGE_SLD	92
T_JUDGE_ALL	970
TTM_EACHPAIRS	179
TTM_SCR_TAP	328500
TTM_SCR_BRK	26000
TTM_SCR_HLD	69000
TTM_SCR_SLD	138000
TTM_SCR_ALL	561500
TTM_SCR_S	543700
TTM_SCR_SS	560500
TTM_RAT_ACV	10017

