VERSION	0.00.00	1.03.00
FES_MODE	0
BPM_DEF	154.000	154.000	154.000	154.000
MET_DEF	4	4
RESOLUTION	384
CLK_DEF	384
COMPATIBLE_CODE	MA2

BPM	0	0	154.000
MET	0	0	4	4

HLD	2	0	2	144
HLD	2	144	3	144
HLD	2	288	4	144
STR	3	48	5
SCR	3	48	5	96	240	2
STR	5	0	7
SI_	5	0	7	96	48	3
HLD	5	192	2	72
HLD	5	264	1	72
TAP	5	336	0
STR	6	0	0
SI_	6	0	0	96	48	4
HLD	6	192	5	72
HLD	6	264	6	72
TAP	6	336	7
STR	7	0	7
SI_	7	0	7	96	48	3
HLD	7	192	2	72
HLD	7	264	1	72
STR	7	336	0
SUR	7	336	0	96	240	3
STR	9	0	4
SI_	9	0	4	96	48	0
HLD	9	192	1	72
HLD	9	264	2	72
TAP	9	336	3
STR	10	0	3
SI_	10	0	3	96	48	7
HLD	10	192	6	72
HLD	10	264	5	72
TAP	10	336	4
STR	11	0	4
SI_	11	0	4	96	48	0
HLD	11	192	1	72
HLD	11	264	2	72
STR	11	336	3
SUL	11	336	3	96	192	0
STR	13	0	7
SUL	13	0	7	96	192	4
TAP	14	0	2
TAP	14	96	2
TAP	14	96	3
TAP	14	192	5
TAP	14	288	4
TAP	14	288	5
TAP	15	0	1
TAP	15	96	0
TAP	15	96	1
TAP	15	192	6
TAP	15	288	6
TAP	15	288	7
TAP	16	0	1
TAP	16	96	0
TAP	16	96	2
TAP	16	192	6
TAP	16	288	5
TAP	16	288	7
TAP	17	0	2
TAP	17	96	1
TAP	17	96	3
TAP	17	192	5
TAP	17	288	4
TAP	17	288	6
HLD	18	0	2	192
TAP	18	96	3
TAP	18	192	3
TAP	18	288	1
TAP	18	288	4
HLD	19	0	5	192
TAP	19	96	4
TAP	19	192	4
TAP	19	288	3
TAP	19	288	6
TAP	20	0	1
TAP	20	96	0
TAP	20	96	2
TAP	20	192	7
STR	20	288	0
SI_	20	288	0	96	96	4
STR	20	288	6
SI_	20	288	6	96	96	2
TAP	21	192	3
TAP	21	288	2
TAP	21	288	4
TAP	22	0	1
TAP	22	0	5
TAP	22	96	0
TAP	22	96	7
HLD	22	192	6	72
HLD	22	264	5	72
TAP	22	336	4
TAP	23	0	4
TAP	23	96	3
TAP	23	96	5
HLD	23	192	1	72
HLD	23	264	2	72
TAP	23	336	3
TAP	24	0	3
TAP	24	96	2
TAP	24	96	4
HLD	24	192	6	72
HLD	24	264	5	72
TAP	24	336	4
TAP	25	0	4
TAP	25	96	2
TAP	25	96	3
TAP	25	192	4
TAP	25	192	5
TAP	25	288	1
TAP	25	288	3
TAP	26	0	4
TAP	26	0	6
TAP	26	96	0
TAP	26	96	5
HLD	26	192	2	72
HLD	26	264	1	72
TAP	26	336	0
TAP	27	0	0
TAP	27	96	1
TAP	27	96	7
HLD	27	192	5	72
HLD	27	264	6	72
TAP	27	336	7
TAP	28	0	7
TAP	28	96	2
TAP	28	96	3
TAP	28	192	0
TAP	28	288	4
TAP	28	288	5
STR	29	0	0
SI_	29	0	0	96	48	3
STR	29	0	7
SI_	29	0	7	96	48	4
BRK	29	192	1
BRK	29	192	6
HLD	30	0	4	96
TAP	30	0	5
TAP	30	48	5
TAP	30	96	7
TAP	30	192	2
HLD	30	192	3	96
TAP	30	240	2
TAP	30	288	0
TAP	31	0	4
TAP	31	0	5
TAP	31	96	1
TAP	31	96	7
TAP	31	192	2
TAP	31	192	3
TAP	31	288	0
TAP	31	288	6
TAP	32	0	3
TAP	32	0	5
TAP	32	96	1
TAP	32	96	7
TAP	32	192	2
TAP	32	192	4
TAP	32	288	0
TAP	32	288	6
TAP	33	0	1
TAP	33	0	2
TAP	33	48	1
TAP	33	48	2
TAP	33	96	1
STR	33	96	2
SSL	33	96	2	96	144	6
TAP	34	0	7
TAP	34	48	7
HLD	34	96	0	96
STR	34	192	1
SI_	34	192	1	96	48	5
TAP	35	0	0
TAP	35	48	0
HLD	35	96	7	96
STR	35	192	6
SI_	35	192	6	96	48	2
STR	36	0	0
SCL	36	0	0	96	96	4
STR	36	0	1
SXL	36	0	1	96	96	3
TAP	36	288	2
TAP	36	288	5
STR	37	0	6
SXR	37	0	6	96	96	4
STR	37	0	7
SCR	37	0	7	96	96	3
TAP	37	288	1
TAP	37	288	6
HLD	38	0	2	96
TAP	38	0	3
TAP	38	48	3
TAP	38	96	0
TAP	38	192	4
HLD	38	192	5	96
TAP	38	240	4
TAP	38	288	7
TAP	39	0	2
TAP	39	0	3
TAP	39	96	0
TAP	39	96	6
TAP	39	192	4
TAP	39	192	5
TAP	39	288	1
TAP	39	288	7
TAP	40	0	2
TAP	40	0	4
TAP	40	96	0
TAP	40	96	6
TAP	40	192	3
TAP	40	192	5
TAP	40	288	1
TAP	40	288	7
TAP	41	0	1
TAP	41	0	2
TAP	41	48	1
TAP	41	48	2
TAP	41	96	1
STR	41	96	2
SSL	41	96	2	96	144	6
HLD	42	0	5	72
TAP	42	72	4
TAP	42	144	3
TAP	42	144	6
HLD	42	192	2	72
TAP	42	264	3
TAP	42	336	1
TAP	42	336	4
HLD	43	0	5	72
TAP	43	72	4
TAP	43	144	3
TAP	43	144	6
TAP	43	192	3
TAP	43	192	6
TAP	43	288	1
TAP	43	288	5
STR	44	0	0
SI_	44	0	0	96	48	3
STR	44	0	4
SI_	44	0	4	96	48	7
STR	44	192	3
SI_	44	192	3	96	48	0
STR	44	192	7
SI_	44	192	7	96	48	4
STR	45	0	0
SCR	45	0	0	96	48	3
STR	45	0	4
SCR	45	0	4	96	48	7
BRK	45	192	1
BRK	45	192	5
HLD	46	0	2	72
TAP	46	72	3
TAP	46	144	3
TAP	46	144	4
HLD	46	192	5	72
TAP	46	264	4
TAP	46	336	3
STR	46	336	6
SUL	46	336	6	96	192	2
HLD	48	0	1	72
TAP	48	72	0
TAP	48	144	0
TAP	48	144	7
HLD	48	192	6	72
TAP	48	264	7
TAP	48	336	0
STR	48	336	5
SUR	48	336	5	96	192	1
HLD	50	0	2	72
TAP	50	72	3
TAP	50	144	3
TAP	50	144	4
HLD	50	192	5	72
TAP	50	264	4
TAP	50	336	3
TAP	50	336	6
TAP	51	48	2
TAP	51	48	5
TAP	51	96	2
TAP	51	96	5
TAP	51	192	3
TAP	51	216	4
TAP	51	288	3
TAP	51	312	4
HLD	52	0	1	72
TAP	52	72	0
TAP	52	144	0
TAP	52	144	7
HLD	52	192	6	72
TAP	52	264	7
STR	52	336	0
SCR	52	336	0	96	168	5
TAP	52	336	5
TAP	53	288	6
TAP	53	288	7
TAP	54	0	0
TAP	54	0	1
TAP	54	96	0
TAP	54	96	1
TAP	54	192	0
TAP	54	192	1
TAP	54	288	0
TAP	54	288	1
TAP	55	0	0
TAP	55	0	1
TAP	55	96	0
TAP	55	96	1
TAP	55	192	0
TAP	55	192	1
TAP	55	288	0
TAP	55	288	1
TAP	56	0	6
TAP	56	0	7
TAP	56	96	6
TAP	56	96	7
TAP	56	192	6
TAP	56	192	7
TAP	56	288	6
TAP	56	288	7
TAP	57	0	3
TAP	57	0	4
TAP	57	96	3
TAP	57	96	4
TAP	57	192	3
TAP	57	192	4
TAP	57	288	3
TAP	57	288	4
TAP	58	0	2
HLD	58	0	5	192
TAP	58	96	2
TAP	58	192	4
TAP	58	288	3
TAP	58	288	6
HLD	59	0	2	192
TAP	59	0	5
TAP	59	96	5
TAP	59	192	3
TAP	59	288	1
HLD	59	288	4	288
TAP	60	0	5
TAP	60	96	5
TAP	60	192	5
TAP	60	288	6
TAP	60	288	7
TAP	61	0	0
STR	61	0	5
SCR	61	0	5	96	192	2
TAP	62	0	0
TAP	62	0	7
HLD	62	192	2	72
HLD	62	264	1	72
TAP	62	336	0
TAP	63	0	0
TAP	63	0	7
HLD	63	192	5	72
HLD	63	264	6	72
TAP	63	336	7
TAP	64	0	0
TAP	64	0	7
HLD	64	192	2	72
HLD	64	264	1	72
TAP	64	336	0
STR	65	0	0
SI_	65	0	0	96	48	4
TAP	65	0	7
STR	65	96	7
SI_	65	96	7	96	48	3
STR	65	192	1
SI_	65	192	1	96	48	4
TAP	65	288	5
TAP	66	0	0
TAP	66	0	6
HLD	66	192	6	72
HLD	66	264	5	72
TAP	66	336	4
TAP	67	0	2
TAP	67	0	3
HLD	67	192	1	72
HLD	67	264	2	72
TAP	67	336	3
STR	68	0	4
SI_	68	0	4	96	48	0
TAP	68	0	5
TAP	68	192	2
STR	68	192	3
SI_	68	192	3	96	48	7
STR	69	0	4
SI_	69	0	4	96	48	1
SI_	69	0	4	96	48	7
TAP	69	0	5
BRK	69	192	2
BRK	69	192	6
TAP	70	0	2
STR	70	0	3
SCR	70	0	3	96	48	6
STR	70	192	4
SCL	70	192	4	96	48	1
TAP	70	192	5
TAP	71	0	2
STR	71	0	3
SI_	71	0	3	96	48	7
STR	71	192	4
SI_	71	192	4	96	48	0
TAP	71	192	5
STR	72	0	2
SI_	72	0	2	96	48	7
STR	72	0	3
SI_	72	0	3	96	48	7
STR	72	192	4
SI_	72	192	4	96	48	0
STR	72	192	5
SI_	72	192	5	96	48	0
TAP	73	0	1
TAP	73	0	2
TAP	73	48	1
TAP	73	48	2
TAP	73	96	1
STR	73	96	2
SSL	73	96	2	96	144	6
TAP	74	0	7
TAP	74	48	0
HLD	74	96	1	96
STR	74	192	2
SUL	74	192	2	96	48	4
TAP	75	0	0
TAP	75	48	7
HLD	75	96	6	96
STR	75	192	5
SUR	75	192	5	96	48	3
STR	76	0	1
SCL	76	0	1	96	96	4
STR	76	0	2
SXL	76	0	2	96	96	4
TAP	76	288	2
TAP	76	288	5
STR	77	0	5
SXR	77	0	5	96	96	3
STR	77	0	6
SCR	77	0	6	96	96	3
TAP	77	288	1
TAP	77	288	6
TAP	78	0	2
STR	78	0	3
SCR	78	0	3	96	48	6
STR	78	192	4
SCL	78	192	4	96	48	1
TAP	78	192	5
TAP	79	0	2
STR	79	0	3
SI_	79	0	3	96	48	7
STR	79	192	4
SI_	79	192	4	96	48	0
TAP	79	192	5
STR	80	0	2
SI_	80	0	2	96	48	0
STR	80	0	3
SI_	80	0	3	96	48	7
STR	80	192	4
SI_	80	192	4	96	48	0
STR	80	192	5
SI_	80	192	5	96	48	7
TAP	81	0	1
TAP	81	0	2
TAP	81	48	1
TAP	81	48	2
TAP	81	96	1
STR	81	96	2
SSL	81	96	2	96	144	6
HLD	82	0	1	72
TAP	82	72	0
TAP	82	144	2
TAP	82	144	7
HLD	82	192	6	72
TAP	82	264	7
TAP	82	336	0
TAP	82	336	5
HLD	83	0	1	72
TAP	83	72	0
TAP	83	144	2
TAP	83	144	7
TAP	83	192	2
TAP	83	192	7
TAP	83	288	1
TAP	83	288	5
STR	84	0	0
SCR	84	0	0	96	48	3
STR	84	0	4
SCR	84	0	4	96	48	7
STR	84	192	3
SCL	84	192	3	96	48	0
STR	84	192	7
SCL	84	192	7	96	48	4
STR	85	0	0
SUR	85	0	0	96	48	4
STR	85	0	4
SUR	85	0	4	96	48	0
BRK	85	192	2
BRK	85	192	6
STR	86	0	7
SUL	86	0	7	96	48	3
HLD	86	192	2	72
HLD	86	264	1	72
TAP	86	336	0
STR	87	0	0
SUR	87	0	0	96	48	4
HLD	87	192	5	72
HLD	87	264	6	72
TAP	87	336	7
STR	88	0	7
SUL	88	0	7	96	48	3
HLD	88	192	2	72
HLD	88	264	1	72
TAP	88	336	0
TAP	89	48	0
TAP	89	48	7
TAP	89	128	4
TAP	89	128	6
TAP	89	192	1
TAP	89	192	3
TAP	89	256	0
TAP	89	256	7
TAP	89	320	0
TAP	89	320	7
TAP	90	0	1
TAP	90	0	3
TAP	90	64	4
TAP	90	64	6
TAP	90	128	0
TAP	90	128	7

T_REC_TAP	309
T_REC_BRK	8
T_REC_XTP	0
T_REC_HLD	68
T_REC_XHO	0
T_REC_STR	71
T_REC_BST	0
T_REC_XST	0
T_REC_TTP	0
T_REC_THO	0
T_REC_SLD	72
T_REC_ALL	528
T_NUM_TAP	380
T_NUM_BRK	8
T_NUM_HLD	68
T_NUM_SLD	72
T_NUM_ALL	528
T_JUDGE_TAP	388
T_JUDGE_HLD	151
T_JUDGE_SLD	72
T_JUDGE_ALL	611
TTM_EACHPAIRS	148
TTM_SCR_TAP	190000
TTM_SCR_BRK	20800
TTM_SCR_HLD	68000
TTM_SCR_SLD	108000
TTM_SCR_ALL	386800
TTM_SCR_S	374450
TTM_SCR_SS	386000
TTM_RAT_ACV	10020

