VERSION	0.00.00	1.03.00
FES_MODE	0
BPM_DEF	154.000	154.000	154.000	154.000
MET_DEF	4	4
RESOLUTION	384
CLK_DEF	384
COMPATIBLE_CODE	MA2

BPM	0	0	154.000
MET	0	0	4	4

TAP	5	0	2
TAP	5	96	2
TAP	5	192	3
TAP	6	0	5
TAP	6	96	5
TAP	6	192	4
TAP	7	0	2
TAP	7	96	3
STR	7	192	4
SSL	7	192	4	96	336	0
TAP	9	0	1
TAP	9	96	1
TAP	9	192	0
TAP	10	0	6
TAP	10	96	6
TAP	10	192	7
TAP	11	0	1
TAP	11	96	0
STR	11	192	7
SSR	11	192	7	96	336	3
HLD	13	0	2	288
TAP	14	0	2
TAP	14	96	2
TAP	14	192	2
TAP	14	192	3
TAP	15	0	5
TAP	15	96	5
TAP	15	192	4
TAP	15	192	5
TAP	16	0	2
TAP	16	96	2
TAP	16	192	2
TAP	16	192	3
TAP	17	0	4
TAP	17	96	4
TAP	17	192	3
TAP	17	192	4
TAP	18	0	2
TAP	18	96	2
TAP	18	192	2
TAP	18	192	3
TAP	19	0	5
TAP	19	96	5
TAP	19	192	4
TAP	19	192	5
TAP	20	0	2
TAP	20	96	2
TAP	20	192	2
TAP	20	192	3
TAP	21	0	5
TAP	21	96	4
TAP	21	96	5
TAP	21	192	2
TAP	21	288	2
TAP	21	288	3
TAP	22	0	1
TAP	22	0	4
HLD	22	192	1	96
TAP	22	288	0
TAP	23	0	0
TAP	23	0	1
HLD	23	192	6	96
TAP	23	288	7
TAP	24	0	6
TAP	24	0	7
TAP	24	192	0
TAP	24	288	0
TAP	24	288	7
HLD	25	0	6	96
TAP	25	96	7
HLD	25	192	1	96
TAP	25	288	0
TAP	26	0	2
TAP	26	0	7
HLD	26	192	2	96
TAP	26	288	3
TAP	27	0	2
TAP	27	0	3
HLD	27	192	5	96
TAP	27	288	4
TAP	28	0	4
TAP	28	0	5
TAP	28	192	2
TAP	28	192	3
TAP	29	0	0
TAP	29	0	7
TAP	29	96	0
TAP	29	96	7
TAP	29	192	1
TAP	29	192	6
BRK	30	0	1
TAP	30	96	0
TAP	30	96	1
TAP	30	192	6
TAP	30	288	6
TAP	30	288	7
STR	31	0	0
SCL	31	0	0	96	144	5
TAP	31	0	1
TAP	32	0	5
TAP	32	96	4
TAP	32	96	5
TAP	32	192	2
TAP	32	288	2
TAP	32	288	3
TAP	33	0	1
TAP	33	0	2
TAP	33	96	1
STR	33	96	2
SSL	33	96	2	96	240	6
HLD	34	192	6	96
TAP	34	288	7
HLD	35	0	1	96
TAP	35	96	0
TAP	35	192	7
HLD	36	0	7	96
TAP	36	96	0
HLD	36	192	1	96
TAP	36	288	0
HLD	37	0	6	96
TAP	37	96	7
TAP	37	192	0
TAP	37	288	0
BRK	38	0	1
TAP	38	96	0
TAP	38	96	1
TAP	38	192	6
TAP	38	288	6
TAP	38	288	7
TAP	39	0	0
STR	39	0	1
SCR	39	0	1	96	144	4
TAP	40	0	5
TAP	40	96	4
TAP	40	96	5
TAP	40	192	2
TAP	40	288	2
TAP	40	288	3
TAP	41	0	1
TAP	41	0	2
TAP	41	96	1
STR	41	96	2
SSL	41	96	2	96	240	6
TAP	42	192	1
TAP	42	288	0
TAP	42	288	1
TAP	43	0	6
TAP	43	96	6
TAP	43	96	7
TAP	43	192	0
TAP	44	0	0
TAP	44	96	0
TAP	44	96	7
TAP	44	192	6
TAP	44	288	6
TAP	44	288	7
TAP	45	0	0
TAP	45	0	1
TAP	45	96	6
TAP	45	96	7
BRK	45	192	0
BRK	45	192	7
TAP	46	0	0
STR	46	0	1
SUR	46	0	1	96	480	2
TAP	48	0	0
STR	48	0	7
SI_	48	0	7	96	336	4
TAP	50	0	1
STR	50	192	0
SI_	50	192	0	96	336	4
STR	50	192	7
SI_	50	192	7	96	336	4
STR	52	0	0
SI_	52	0	0	96	336	4
STR	52	0	7
SI_	52	0	7	96	336	4
TAP	54	0	5
TAP	54	96	5
TAP	54	192	4
TAP	54	192	5
TAP	55	0	2
TAP	55	96	2
TAP	55	192	2
TAP	55	192	3
TAP	56	0	5
TAP	56	96	5
TAP	56	192	4
TAP	56	192	5
TAP	57	0	3
TAP	57	96	3
TAP	57	192	3
TAP	57	192	4
TAP	58	0	5
TAP	58	96	5
TAP	58	192	4
TAP	58	192	5
TAP	59	0	2
TAP	59	96	2
TAP	59	192	2
TAP	59	192	3
TAP	60	0	5
TAP	60	96	5
TAP	60	192	4
TAP	60	192	5
HLD	61	0	2	96
TAP	61	96	3
HLD	61	192	5	96
TAP	61	288	4
BRK	62	0	3
BRK	62	0	6
HLD	62	192	6	96
TAP	62	288	7
TAP	63	0	6
TAP	63	0	7
HLD	63	192	1	96
TAP	63	288	0
TAP	64	0	0
TAP	64	0	1
TAP	64	192	7
TAP	64	288	0
TAP	64	288	7
HLD	65	0	1	96
TAP	65	96	0
HLD	65	192	6	96
TAP	65	288	7
TAP	66	0	0
TAP	66	0	5
HLD	66	192	5	96
TAP	66	288	4
TAP	67	0	4
TAP	67	0	5
HLD	67	192	2	96
TAP	67	288	3
TAP	68	0	2
TAP	68	0	3
TAP	68	192	4
TAP	68	192	5
TAP	69	0	3
TAP	69	0	4
TAP	69	96	3
TAP	69	96	4
TAP	69	192	2
TAP	69	192	5
BRK	70	0	1
TAP	70	96	0
TAP	70	96	1
TAP	70	192	6
TAP	70	288	6
TAP	70	288	7
STR	71	0	0
SCL	71	0	0	96	144	5
TAP	71	0	1
TAP	72	0	5
TAP	72	96	4
TAP	72	96	5
TAP	72	192	2
TAP	72	288	2
TAP	72	288	3
TAP	73	0	1
TAP	73	0	2
TAP	73	96	1
STR	73	96	2
SSL	73	96	2	96	240	6
HLD	74	192	1	96
TAP	74	288	0
HLD	75	0	6	96
TAP	75	96	7
TAP	75	192	0
TAP	75	192	7
HLD	76	0	0	96
TAP	76	96	7
HLD	76	192	6	96
TAP	76	288	7
HLD	77	0	1	96
TAP	77	96	0
TAP	77	192	6
TAP	77	192	7
TAP	77	288	0
TAP	77	288	1
BRK	78	0	1
TAP	78	96	0
TAP	78	96	1
TAP	78	192	6
TAP	78	288	6
TAP	78	288	7
TAP	79	0	0
STR	79	0	1
SCR	79	0	1	96	144	4
TAP	80	0	5
TAP	80	96	4
TAP	80	96	5
TAP	80	192	2
TAP	80	288	2
TAP	80	288	3
TAP	81	0	1
TAP	81	0	2
TAP	81	96	1
STR	81	96	2
SSL	81	96	2	96	240	6
TAP	82	192	1
TAP	82	288	0
TAP	82	288	1
TAP	83	0	6
TAP	83	96	6
TAP	83	96	7
TAP	83	192	0
TAP	83	192	5
TAP	84	0	1
TAP	84	96	0
TAP	84	96	1
TAP	84	192	6
TAP	84	288	6
TAP	84	288	7
TAP	85	0	0
TAP	85	0	1
TAP	85	96	6
TAP	85	96	7
TAP	85	192	1
TAP	85	192	6
TAP	86	0	2
TAP	86	96	2
TAP	86	192	2
TAP	86	192	3
TAP	87	0	5
TAP	87	96	5
TAP	87	192	4
TAP	87	192	5
TAP	88	0	2
TAP	88	96	2
TAP	88	96	3
TAP	88	192	5
STR	88	288	4
SXR	88	288	4	96	576	1
STR	88	288	5
SXL	88	288	5	96	576	0

T_REC_TAP	267
T_REC_BRK	8
T_REC_XTP	0
T_REC_HLD	25
T_REC_XHO	0
T_REC_STR	18
T_REC_BST	0
T_REC_XST	0
T_REC_TTP	0
T_REC_THO	0
T_REC_SLD	18
T_REC_ALL	336
T_NUM_TAP	285
T_NUM_BRK	8
T_NUM_HLD	25
T_NUM_SLD	18
T_NUM_ALL	336
T_JUDGE_TAP	293
T_JUDGE_HLD	54
T_JUDGE_SLD	18
T_JUDGE_ALL	365
TTM_EACHPAIRS	92
TTM_SCR_TAP	142500
TTM_SCR_BRK	20800
TTM_SCR_HLD	25000
TTM_SCR_SLD	27000
TTM_SCR_ALL	215300
TTM_SCR_S	208100
TTM_SCR_SS	214500
TTM_RAT_ACV	10037

